999
DXF file: O:\ORAC_PRODUCTEN\ORAC_COEX\SX\206\product_drawings\sx206-prod-mm-inches.dxf
999
Pro/ENGINEER 2021404 by Parametric Technology Corporation
  0
SECTION
  2
HEADER
  9
$ACADVER
  1
AC1024
  9
$DWGCODEPAGE
  3
ANSI_1252
  9
$EXTMAX
 10
297.0
 20
210.0
 30
0.0
  9
$EXTMIN
 10
0.0
 20
0.0
 30
0.0
  9
$LIMMIN
 10
0.0
 20
0.0
  9
$LIMMAX
 10
297.0
 20
210.0
  9
$VIEWCTR
 10
148.5
 20
105.0
  9
$VIEWSIZE
 40
210.0
  9
$CLAYER
  8
0
  9
$LTSCALE
 40
16.335
  9
$CELTYPE
  6
BYLAYER
  9
$DIMSCALE
 40
1.0
  9
$DIMASZ
 40
3.5
  9
$DIMEXO
 40
1.0
  9
$DIMDLI
 40
11.286
  9
$DIMEXE
 40
1.5
  9
$DIMCEN
 40
2.673
  9
$DIMLFAC
 40
1.0
  9
$DIMBLK
  1
_FILLED
  9
$DIMALT
 70
0
  9
$DIMALTF
 40
0.0393700787
  9
$DIMTXT
 40
2.5
  9
$DIMTOL
 70
1
  9
$DIMLIM
 70
0
  9
$DIMTFAC
 40
1.0
  9
$DIMTP
 40
0.001
  9
$DIMTM
 40
0.001
  9
$DIMGAP
 40
0.625
  9
$DIMDSEP
 70
44
  9
$AUNITS
 70
0
  9
$PDMODE
 70
3
  9
$PDSIZE
 40
8.0
  9
$HANDSEED
  5
34A
  9
$TILEMODE
 70
0
  9
$MEASUREMENT
 70
1
  9
$INSUNITS
 70
4
  0
ENDSEC
  0
SECTION
  2
CLASSES
  0
CLASS
  1
ACDBDICTIONARYWDFLT
  2
AcDbDictionaryWithDefault
  3
AutoCAD 2000
 90
0
 91
1
280
0
281
0
  0
CLASS
  1
ACDBPLACEHOLDER
  2
AcDbPlaceHolder
  3
AutoCAD 2000
 90
0
 91
1
280
0
281
0
  0
CLASS
  1
LAYOUT
  2
AcDbLayout
  3
AutoCAD 2000
 90
0
 91
0
280
0
281
0
  0
CLASS
  1
TABLESTYLE
  2
AcDbTableStyle
  3
ObjectDBX Classes
 90
2047
 91
1
280
0
281
0
  0
CLASS
  1
ACAD_TABLE
  2
AcDbTable
  3
ObjectDBX Classes
 90
1025
 91
1
280
0
281
1
  0
ENDSEC
  0
SECTION
  2
TABLES
  0
TABLE
  2
VPORT
  5
8
100
AcDbSymbolTable
 70
2
  0
VPORT
  5
1F4
100
AcDbSymbolTableRecord
100
AcDbViewportTableRecord
  2
*ACTIVE
 70
0
 10
0.0
 20
0.0
 11
1.0
 21
1.0
 12
148.5
 22
105.0
 13
0.0
 23
0.0
 14
1.0
 24
1.0
 15
0.0
 25
0.0
 16
0.0
 26
0.0
 36
1.0
 17
0.0
 27
0.0
 37
0.0
 40
210.0
 41
1.4142857143
 42
50.0
 43
0.0
 44
0.0
 50
0.0
 51
0.0
 71
0
 72
100
 73
1
 74
1
 75
0
 76
0
 77
0
 78
0
  0
ENDTAB
  0
TABLE
  2
LTYPE
  5
5
100
AcDbSymbolTable
 70
6
  0
LTYPE
  5
14
100
AcDbSymbolTableRecord
100
AcDbLinetypeTableRecord
  2
BYBLOCK
 70
0
  3

 72
65
 73
0
 40
0.0
  0
LTYPE
  5
15
100
AcDbSymbolTableRecord
100
AcDbLinetypeTableRecord
  2
BYLAYER
 70
0
  3

 72
65
 73
0
 40
0.0
  0
LTYPE
  5
16
100
AcDbSymbolTableRecord
100
AcDbLinetypeTableRecord
  2
CONTINUOUS
 70
64
  3
Solid line
 72
65
 73
0
 40
0.0
  0
LTYPE
  5
1F5
100
AcDbSymbolTableRecord
100
AcDbLinetypeTableRecord
  2
CENTER
 70
64
  3
____ _ ____ _ ____ _ ____ _ ____ _ ____ _ ____
 72
65
 73
4
 40
0.6
 49
0.375
 74
0
 49
-0.075
 74
0
 49
0.075
 74
0
 49
-0.075
 74
0
  0
LTYPE
  5
1F6
100
AcDbSymbolTableRecord
100
AcDbLinetypeTableRecord
  2
HIDDEN
 70
64
  3
- - - - - - - - - - - - - - - - - - - -
 72
65
 73
2
 40
0.2
 49
0.1
 74
0
 49
-0.1
 74
0
  0
LTYPE
  5
1F7
100
AcDbSymbolTableRecord
100
AcDbLinetypeTableRecord
  2
PHANTOM
 70
64
  3
_____ _ _ _____ _ _ _____ _ _ _____
 72
65
 73
6
 40
0.8
 49
0.45
 74
0
 49
-0.05
 74
0
 49
0.1
 74
0
 49
-0.05
 74
0
 49
0.1
 74
0
 49
-0.05
 74
0
  0
LTYPE
  5
1F8
100
AcDbSymbolTableRecord
100
AcDbLinetypeTableRecord
  2
DOT
 70
64
  3
. . . . . . . . . . . . . . . . . . . .
 72
65
 73
2
 40
0.2
 49
0.1
 74
0
 49
-0.1
 74
0
  0
LTYPE
  5
1F9
100
AcDbSymbolTableRecord
100
AcDbLinetypeTableRecord
  2
DASHED
 70
64
  3
- - - - - - - - - - - - - - - - - - - -
 72
65
 73
2
 40
0.2
 49
0.1
 74
0
 49
-0.1
 74
0
  0
ENDTAB
  0
TABLE
  2
LAYER
  5
2
100
AcDbSymbolTable
 70
36
  0
LAYER
  5
10
100
AcDbSymbolTableRecord
100
AcDbLayerTableRecord
  2
0
 70
0
 62
7
  6
CONTINUOUS
370
-3
390
F
  0
LAYER
  5
1FA
100
AcDbSymbolTableRecord
100
AcDbLayerTableRecord
  2
DEFAULT_1
 70
0
 62
7
  6
CENTER
370
-3
390
F
  0
LAYER
  5
1FB
100
AcDbSymbolTableRecord
100
AcDbLayerTableRecord
  2
DEFAULT_2
 70
0
 62
8
  6
HIDDEN
370
-3
390
F
  0
LAYER
  5
1FC
100
AcDbSymbolTableRecord
100
AcDbLayerTableRecord
  2
DEFAULT_3
 70
0
 62
7
  6
PHANTOM
370
-3
390
F
  0
LAYER
  5
1FD
100
AcDbSymbolTableRecord
100
AcDbLayerTableRecord
  2
DTM_ALL
 70
0
 62
7
  6
CONTINUOUS
370
-3
390
F
  0
LAYER
  5
1FE
100
AcDbSymbolTableRecord
100
AcDbLayerTableRecord
  2
DTM_AXIS
 70
0
 62
7
  6
CONTINUOUS
370
-3
390
F
  0
LAYER
  5
1FF
100
AcDbSymbolTableRecord
100
AcDbLayerTableRecord
  2
DTM_CSYS
 70
0
 62
7
  6
CONTINUOUS
370
-3
390
F
  0
LAYER
  5
200
100
AcDbSymbolTableRecord
100
AcDbLayerTableRecord
  2
DTM_CURVE
 70
0
 62
7
  6
CONTINUOUS
370
-3
390
F
  0
LAYER
  5
201
100
AcDbSymbolTableRecord
100
AcDbLayerTableRecord
  2
DTM_MASTER
 70
0
 62
7
  6
CONTINUOUS
370
-3
390
F
  0
LAYER
  5
202
100
AcDbSymbolTableRecord
100
AcDbLayerTableRecord
  2
DTM_POINT
 70
0
 62
7
  6
CONTINUOUS
370
-3
390
F
  0
LAYER
  5
203
100
AcDbSymbolTableRecord
100
AcDbLayerTableRecord
  2
DTM_QUILT
 70
0
 62
7
  6
CONTINUOUS
370
-3
390
F
  0
LAYER
  5
204
100
AcDbSymbolTableRecord
100
AcDbLayerTableRecord
  2
GTOL
 70
0
 62
7
  6
CONTINUOUS
370
-3
390
F
  0
LAYER
  5
205
100
AcDbSymbolTableRecord
100
AcDbLayerTableRecord
  2
NOTES
 70
0
 62
7
  6
CONTINUOUS
370
-3
390
F
  0
ENDTAB
  0
TABLE
  2
STYLE
  5
3
100
AcDbSymbolTable
 70
1
  0
STYLE
  5
11
100
AcDbSymbolTableRecord
100
AcDbTextStyleTableRecord
  2
STANDARD
 70
0
 40
0.0
 41
1.0
 50
0.0
 71
0
 42
0.2
  3
cgtime.ttf
  4

1001
ACAD
1000
CG Times
1071
34
  0
STYLE
  5
206
100
AcDbSymbolTableRecord
100
AcDbTextStyleTableRecord
  2
TEXTSTYLE_1
 70
0
 40
0.0
 41
0.8
 50
0.0
 71
0
 42
0.2
  3
gdt
  4

  0
STYLE
  5
207
100
AcDbSymbolTableRecord
100
AcDbTextStyleTableRecord
  2
TEXTSTYLE_2
 70
0
 40
0.0
 41
1.0
 50
0.0
 71
0
 42
0.2
  3
trium.ttf
  4

1001
ACAD
1000
CG Triumvirate
1071
34
  0
ENDTAB
  0
TABLE
  2
VIEW
  5
6
100
AcDbSymbolTable
 70
0
  0
ENDTAB
  0
TABLE
  2
UCS
  5
7
100
AcDbSymbolTable
 70
0
  0
ENDTAB
  0
TABLE
  2
APPID
  5
9
100
AcDbSymbolTable
 70
1
  0
APPID
  5
208
100
AcDbSymbolTableRecord
100
AcDbRegAppTableRecord
  2
ACAD
 70
0
  0
ENDTAB
  0
TABLE
  2
BLOCK_RECORD
  5
1
100
AcDbSymbolTable
 70
0
  0
BLOCK_RECORD
  5
209
100
AcDbSymbolTableRecord
100
AcDbBlockTableRecord
  2
*Model_Space
  0
BLOCK_RECORD
  5
20A
100
AcDbSymbolTableRecord
100
AcDbBlockTableRecord
  2
*Paper_Space
  0
BLOCK_RECORD
  5
20B
100
AcDbSymbolTableRecord
100
AcDbBlockTableRecord
  2
_FILLED
  0
BLOCK_RECORD
  5
20C
100
AcDbSymbolTableRecord
100
AcDbBlockTableRecord
  2
*D0
  0
BLOCK_RECORD
  5
20D
100
AcDbSymbolTableRecord
100
AcDbBlockTableRecord
  2
*D1
  0
BLOCK_RECORD
  5
20E
100
AcDbSymbolTableRecord
100
AcDbBlockTableRecord
  2
*D2
  0
BLOCK_RECORD
  5
20F
100
AcDbSymbolTableRecord
100
AcDbBlockTableRecord
  2
*D3
  0
BLOCK_RECORD
  5
210
100
AcDbSymbolTableRecord
100
AcDbBlockTableRecord
  2
*D4
  0
BLOCK_RECORD
  5
211
100
AcDbSymbolTableRecord
100
AcDbBlockTableRecord
  2
*D5
  0
BLOCK_RECORD
  5
212
100
AcDbSymbolTableRecord
100
AcDbBlockTableRecord
  2
*D6
  0
BLOCK_RECORD
  5
213
100
AcDbSymbolTableRecord
100
AcDbBlockTableRecord
  2
*D7
  0
BLOCK_RECORD
  5
214
100
AcDbSymbolTableRecord
100
AcDbBlockTableRecord
  2
*D8
  0
BLOCK_RECORD
  5
215
100
AcDbSymbolTableRecord
100
AcDbBlockTableRecord
  2
*T1
  0
ENDTAB
  0
TABLE
  2
DIMSTYLE
  5
A
100
AcDbSymbolTable
 70
1
100
AcDbDimStyleTable
 71
0
  0
DIMSTYLE
105
216
100
AcDbSymbolTableRecord
100
AcDbDimStyleTableRecord
  2
STANDARD
 70
0
  3

  4

 40
1.0
 41
3.5
 42
1.0
 43
0.38
 44
1.5
 45
0.0
 46
0.0
 47
0.001
 48
0.001
140
2.5
141
0.09
142
0.0
143
25.4
144
1.0
145
0.0
146
1.0
147
0.625
 71
1
 72
0
 73
1
 74
1
 75
0
 76
0
 77
0
 78
8
 79
2
170
0
171
2
172
0
173
0
174
0
175
0
176
0
177
0
178
0
270
2
179
3
271
3
272
3
273
2
274
2
275
0
280
0
281
0
282
0
283
1
284
8
285
0
286
0
287
3
288
0
340
11
278
44
341
20B
342
20B
343
20B
344
20B
  0
DIMSTYLE
105
217
100
AcDbSymbolTableRecord
100
AcDbDimStyleTableRecord
  2
DIMSTYLE_1
 70
0
  3

  4

 40
1.0
 41
3.5
 42
1.0
 43
0.38
 44
1.5
 45
0.0
 46
0.0
 47
0.0
 48
0.0
140
2.5
141
0.09
142
0.0
143
25.4
144
1.0
145
0.0
146
1.0
147
1.25
 71
0
 72
0
 73
1
 74
1
 75
0
 76
0
 77
0
 78
8
 79
2
170
0
171
2
172
0
173
0
174
0
175
0
176
0
177
0
178
0
270
2
179
3
271
2
272
2
273
2
274
2
275
0
280
0
281
0
282
0
283
1
284
8
285
0
286
0
287
3
288
0
340
11
278
44
341
20B
342
20B
343
20B
344
20B
  0
DIMSTYLE
105
218
100
AcDbSymbolTableRecord
100
AcDbDimStyleTableRecord
  2
DIMSTYLE_2
 70
0
  3

  4

 40
1.0
 41
3.5
 42
1.0
 43
0.38
 44
1.5
 45
0.0
 46
0.0
 47
0.0
 48
0.0
140
2.5
141
0.09
142
0.0
143
25.4
144
1.0
145
0.0
146
1.0
147
1.25
 71
0
 72
0
 73
1
 74
1
 75
0
 76
0
 77
0
 78
8
 79
2
170
0
171
2
172
0
173
0
174
0
175
0
176
0
177
0
178
0
270
2
179
3
271
3
272
8
273
2
274
2
275
0
280
0
281
0
282
0
283
1
284
8
285
0
286
0
287
3
288
0
340
11
278
44
341
20B
342
20B
343
20B
344
20B
  0
DIMSTYLE
105
219
100
AcDbSymbolTableRecord
100
AcDbDimStyleTableRecord
  2
DIMSTYLE_3
 70
0
  3

  4

 40
1.0
 41
3.5
 42
1.0
 43
0.38
 44
1.5
 45
0.0
 46
0.0
 47
0.0
 48
0.0
140
2.5
141
0.09
142
0.0
143
25.4
144
1.0
145
0.0
146
1.0
147
1.25
 71
0
 72
0
 73
1
 74
1
 75
0
 76
0
 77
0
 78
8
 79
2
170
0
171
2
172
0
173
0
174
0
175
0
176
0
177
0
178
0
270
2
179
3
271
1
272
1
273
2
274
2
275
0
280
0
281
0
282
0
283
1
284
8
285
0
286
0
287
3
288
0
340
11
278
44
341
20B
342
20B
343
20B
344
20B
  0
DIMSTYLE
105
21A
100
AcDbSymbolTableRecord
100
AcDbDimStyleTableRecord
  2
DIMSTYLE_4
 70
0
  3

  4

 40
1.0
 41
3.5
 42
1.0
 43
0.38
 44
1.5
 45
0.0
 46
0.0
 47
0.0
 48
0.0
140
2.5
141
0.09
142
0.0
143
25.4
144
1.0
145
0.0
146
1.0
147
1.25
 71
0
 72
0
 73
1
 74
1
 75
0
 76
0
 77
0
 78
8
 79
2
170
0
171
2
172
0
173
0
174
0
175
0
176
0
177
0
178
0
270
2
179
3
271
1
272
2
273
2
274
2
275
0
280
0
281
0
282
0
283
1
284
8
285
0
286
0
287
3
288
0
340
11
278
44
341
20B
342
20B
343
20B
344
20B
  0
ENDTAB
  0
ENDSEC
  0
SECTION
  2
BLOCKS
  0
BLOCK
  5
20
100
AcDbEntity
  8
0
100
AcDbBlockBegin
  2
*Model_Space
 70
0
 10
0.0
 20
0.0
 30
0.0
  3
*Model_Space
  1

  0
ENDBLK
  5
21
100
AcDbEntity
  8
0
100
AcDbBlockEnd
  0
BLOCK
  5
1C
100
AcDbEntity
  8
0
100
AcDbBlockBegin
  2
*Paper_Space
 70
0
 10
0.0
 20
0.0
 30
0.0
  3
*Paper_Space
  1

  0
ENDBLK
  5
1D
100
AcDbEntity
  8
0
100
AcDbBlockEnd
  0
BLOCK
  5
21B
100
AcDbEntity
  8
0
100
AcDbBlockBegin
  2
_FILLED
 70
64
 10
0.0
 20
0.0
  3
_FILLED
  1

  0
SOLID
  5
21C
100
AcDbEntity
  8
0
  6
BYBLOCK
 62
0
100
AcDbTrace
 10
0.0
 20
0.0
 11
-1.0
 21
0.2142857143
 12
-1.0
 22
-0.2142857143
 13
-1.0
 23
-0.2142857143
  0
ENDBLK
  5
21D
100
AcDbEntity
  8
0
  6
BYBLOCK
 62
0
100
AcDbBlockEnd
  0
BLOCK
  5
21E
100
AcDbEntity
  8
0
100
AcDbBlockBegin
 62
2
  6
CONTINUOUS
  2
*D0
 70
65
 10
0.0
 20
0.0
  3
*D0
  1

  0
TEXT
  5
21F
100
AcDbEntity
  8
0
100
AcDbText
 62
2
  6
CONTINUOUS
 10
79.6412331994
 20
164.3908290525
  7
STANDARD
 40
2.5
  1
16,96
 72
5
 11
88.1334510982
 21
164.3908290525
100
AcDbText
  0
TEXT
  5
220
100
AcDbEntity
  8
0
100
AcDbText
 62
2
  6
CONTINUOUS
 10
88.1334510982
 20
164.3908290525
  7
STANDARD
 40
2.5
  1
 mm
 72
5
 11
94.8844238609
 21
164.3908290525
100
AcDbText
  0
TEXT
  5
221
100
AcDbEntity
  8
0
100
AcDbText
 62
2
  6
CONTINUOUS
 10
79.6412331994
 20
160.6408290525
  7
STANDARD
 40
2.5
  1
5/8"
 72
5
 11
86.1781981799
 21
160.6408290525
100
AcDbText
  0
LINE
  5
222
100
AcDbEntity
  8
0
100
AcDbLine
 62
2
  6
CONTINUOUS
 10
52.8263792038
 20
181.8661117553
 11
52.8263792038
 21
164.1408290525
  0
LINE
  5
223
100
AcDbEntity
  8
0
100
AcDbLine
 62
2
  6
CONTINUOUS
 10
69.7871434019
 20
165.5095810682
 11
69.7871434019
 21
164.1408290525
  0
LINE
  5
224
100
AcDbEntity
  8
0
100
AcDbLine
 62
2
  6
CONTINUOUS
 10
52.8263792038
 20
165.6408290525
 11
61.3067613029
 21
165.6408290525
  0
LINE
  5
225
100
AcDbEntity
  8
0
100
AcDbLine
 62
2
  6
CONTINUOUS
 10
69.7871434019
 20
165.6408290525
 11
61.3067613029
 21
165.6408290525
  0
LINE
  5
226
100
AcDbEntity
  8
0
100
AcDbLine
 62
2
  6
CONTINUOUS
 10
61.3067613029
 20
165.6408290525
 11
78.3912331994
 21
165.6408290525
  0
INSERT
  5
227
100
AcDbEntity
  8
0
100
AcDbBlockReference
 62
2
  6
CONTINUOUS
  2
_FILLED
 10
52.8263792038
 20
165.6408290525
 41
3.5
 42
3.5
 43
3.5
 50
180.0
  0
INSERT
  5
228
100
AcDbEntity
  8
0
100
AcDbBlockReference
 62
2
  6
CONTINUOUS
  2
_FILLED
 10
69.7871434019
 20
165.6408290525
 41
3.5
 42
3.5
 43
3.5
  0
ENDBLK
  5
229
100
AcDbEntity
  8
0
  6
BYBLOCK
 62
0
100
AcDbBlockEnd
  0
BLOCK
  5
22A
100
AcDbEntity
  8
0
100
AcDbBlockBegin
 62
2
  6
CONTINUOUS
  2
*D1
 70
65
 10
0.0
 20
0.0
  3
*D1
  1

  0
TEXT
  5
22B
100
AcDbEntity
  8
0
100
AcDbText
 62
2
  6
CONTINUOUS
 10
79.6146824142
 20
33.2096025669
  7
STANDARD
 40
2.5
  1
18
 72
5
 11
83.2528147099
 21
33.2096025669
100
AcDbText
  0
TEXT
  5
22C
100
AcDbEntity
  8
0
100
AcDbText
 62
2
  6
CONTINUOUS
 10
83.2528147099
 20
33.2096025669
  7
STANDARD
 40
2.5
  1
 mm
 72
5
 11
90.0037874725
 21
33.2096025669
100
AcDbText
  0
TEXT
  5
22D
100
AcDbEntity
  8
0
100
AcDbText
 62
2
  6
CONTINUOUS
 10
79.6146824142
 20
29.4596025669
  7
STANDARD
 40
2.5
  1
3/4"
 72
5
 11
86.1516473947
 21
29.4596025669
100
AcDbText
  0
LINE
  5
22E
100
AcDbEntity
  8
0
100
AcDbLine
 62
2
  6
CONTINUOUS
 10
52.8263792038
 20
21.3386916511
 11
52.8263792038
 21
35.9596025669
  0
LINE
  5
22F
100
AcDbEntity
  8
0
100
AcDbLine
 62
2
  6
CONTINUOUS
 10
70.8263792038
 20
34.4596025669
 11
61.8263792038
 21
34.4596025669
  0
LINE
  5
230
100
AcDbEntity
  8
0
100
AcDbLine
 62
2
  6
CONTINUOUS
 10
61.8263792038
 20
34.4596025669
 11
78.3646824142
 21
34.4596025669
  0
LINE
  5
231
100
AcDbEntity
  8
0
100
AcDbLine
 62
2
  6
CONTINUOUS
 10
52.8263792038
 20
34.4596025669
 11
61.8263792038
 21
34.4596025669
  0
INSERT
  5
232
100
AcDbEntity
  8
0
100
AcDbBlockReference
 62
2
  6
CONTINUOUS
  2
_FILLED
 10
70.8263792038
 20
34.4596025669
 41
3.5
 42
3.5
 43
3.5
  0
INSERT
  5
233
100
AcDbEntity
  8
0
100
AcDbBlockReference
 62
2
  6
CONTINUOUS
  2
_FILLED
 10
52.8263792038
 20
34.4596025669
 41
3.5
 42
3.5
 43
3.5
 50
180.0
  0
ENDBLK
  5
234
100
AcDbEntity
  8
0
  6
BYBLOCK
 62
0
100
AcDbBlockEnd
  0
BLOCK
  5
235
100
AcDbEntity
  8
0
100
AcDbBlockBegin
 62
2
  6
CONTINUOUS
  2
*D2
 70
65
 10
0.0
 20
0.0
  3
*D2
  1

  0
TEXT
  5
236
100
AcDbEntity
  8
0
100
AcDbText
 62
2
  6
CONTINUOUS
 10
36.042587477
 20
148.2130473041
  7
STANDARD
 40
2.5
  1
80,2
 72
5
 11
42.715739228
 21
148.2130473041
100
AcDbText
  0
TEXT
  5
237
100
AcDbEntity
  8
0
100
AcDbText
 62
2
  6
CONTINUOUS
 10
42.715739228
 20
148.2130473041
  7
STANDARD
 40
2.5
  1
 mm
 72
5
 11
49.4667119907
 21
148.2130473041
100
AcDbText
  0
TEXT
  5
238
100
AcDbEntity
  8
0
100
AcDbText
 62
2
  6
CONTINUOUS
 10
37.968657516
 20
144.4630473041
  7
STANDARD
 40
2.5
  1
3-1/8"
 72
5
 11
47.5406419517
 21
144.4630473041
100
AcDbText
  0
LINE
  5
239
100
AcDbEntity
  8
0
100
AcDbLine
 62
2
  6
CONTINUOUS
 10
53.3263792038
 20
109.3386916511
 11
41.2546497339
 21
109.3386916511
  0
LINE
  5
23A
100
AcDbEntity
  8
0
100
AcDbLine
 62
2
  6
CONTINUOUS
 10
52.5263792038
 20
189.5874029571
 11
41.2546497339
 21
189.5874029571
  0
LINE
  5
23B
100
AcDbEntity
  8
0
100
AcDbLine
 62
2
  6
CONTINUOUS
 10
42.7546497339
 20
109.3386916511
 11
42.7546497339
 21
143.2130473041
  0
LINE
  5
23C
100
AcDbEntity
  8
0
100
AcDbLine
 62
2
  6
CONTINUOUS
 10
42.7546497339
 20
189.5874029571
 11
42.7546497339
 21
151.9630473041
  0
INSERT
  5
23D
100
AcDbEntity
  8
0
100
AcDbBlockReference
 62
2
  6
CONTINUOUS
  2
_FILLED
 10
42.7546497339
 20
109.3386916511
 41
3.5
 42
3.5
 43
3.5
 50
270.0
  0
INSERT
  5
23E
100
AcDbEntity
  8
0
100
AcDbBlockReference
 62
2
  6
CONTINUOUS
  2
_FILLED
 10
42.7546497339
 20
189.5874029571
 41
3.5
 42
3.5
 43
3.5
 50
90.0
  0
ENDBLK
  5
23F
100
AcDbEntity
  8
0
  6
BYBLOCK
 62
0
100
AcDbBlockEnd
  0
BLOCK
  5
240
100
AcDbEntity
  8
0
100
AcDbBlockBegin
 62
2
  6
CONTINUOUS
  2
*D3
 70
65
 10
0.0
 20
0.0
  3
*D3
  1

  0
TEXT
  5
241
100
AcDbEntity
  8
0
100
AcDbText
 62
2
  6
CONTINUOUS
 10
95.1439386823
 20
98.3374029571
  7
STANDARD
 40
2.5
  1
180
 72
5
 11
100.6011371259
 21
98.3374029571
100
AcDbText
  0
TEXT
  5
242
100
AcDbEntity
  8
0
100
AcDbText
 62
2
  6
CONTINUOUS
 10
100.6011371259
 20
98.3374029571
  7
STANDARD
 40
2.5
  1
 mm
 72
5
 11
107.3521098886
 21
98.3374029571
100
AcDbText
  0
TEXT
  5
243
100
AcDbEntity
  8
0
100
AcDbText
 62
2
  6
CONTINUOUS
 10
96.4620320676
 20
94.5874029571
  7
STANDARD
 40
2.5
  1
7-1/8"
 72
5
 11
106.0340165034
 21
94.5874029571
100
AcDbText
  0
LINE
  5
244
100
AcDbEntity
  8
0
100
AcDbLine
 62
2
  6
CONTINUOUS
 10
71.3263792038
 20
9.5874029571
 11
102.7480242855
 21
9.5874029571
  0
LINE
  5
245
100
AcDbEntity
  8
0
100
AcDbLine
 62
2
  6
CONTINUOUS
 10
60.3317142302
 20
189.5874029571
 11
102.7480242855
 21
189.5874029571
  0
LINE
  5
246
100
AcDbEntity
  8
0
100
AcDbLine
 62
2
  6
CONTINUOUS
 10
101.2480242855
 20
9.5874029571
 11
101.2480242855
 21
93.3374029571
  0
LINE
  5
247
100
AcDbEntity
  8
0
100
AcDbLine
 62
2
  6
CONTINUOUS
 10
101.2480242855
 20
189.5874029571
 11
101.2480242855
 21
102.0874029571
  0
INSERT
  5
248
100
AcDbEntity
  8
0
100
AcDbBlockReference
 62
2
  6
CONTINUOUS
  2
_FILLED
 10
101.2480242855
 20
9.5874029571
 41
3.5
 42
3.5
 43
3.5
 50
270.0
  0
INSERT
  5
249
100
AcDbEntity
  8
0
100
AcDbBlockReference
 62
2
  6
CONTINUOUS
  2
_FILLED
 10
101.2480242855
 20
189.5874029571
 41
3.5
 42
3.5
 43
3.5
 50
90.0
  0
ENDBLK
  5
24A
100
AcDbEntity
  8
0
  6
BYBLOCK
 62
0
100
AcDbBlockEnd
  0
BLOCK
  5
24B
100
AcDbEntity
  8
0
100
AcDbBlockBegin
 62
2
  6
CONTINUOUS
  2
*D4
 70
65
 10
0.0
 20
0.0
  3
*D4
  1

  0
TEXT
  5
24C
100
AcDbEntity
  8
0
100
AcDbText
 62
2
  6
CONTINUOUS
 10
36.042587477
 20
14.2130473041
  7
STANDARD
 40
2.5
  1
11,8
 72
5
 11
42.715739228
 21
14.2130473041
100
AcDbText
  0
TEXT
  5
24D
100
AcDbEntity
  8
0
100
AcDbText
 62
2
  6
CONTINUOUS
 10
42.715739228
 20
14.2130473041
  7
STANDARD
 40
2.5
  1
 mm
 72
5
 11
49.4667119907
 21
14.2130473041
100
AcDbText
  0
TEXT
  5
24E
100
AcDbEntity
  8
0
100
AcDbText
 62
2
  6
CONTINUOUS
 10
39.4861672436
 20
10.4630473041
  7
STANDARD
 40
2.5
  1
1/2"
 72
5
 11
46.0231322241
 21
10.4630473041
100
AcDbText
  0
LINE
  5
24F
100
AcDbEntity
  8
0
100
AcDbLine
 62
2
  6
CONTINUOUS
 10
52.8263792038
 20
21.3386916511
 11
41.2546497339
 21
21.3386916511
  0
LINE
  5
250
100
AcDbEntity
  8
0
100
AcDbLine
 62
2
  6
CONTINUOUS
 10
65.9185359521
 20
9.5874029571
 11
41.2546497339
 21
9.5874029571
  0
LINE
  5
251
100
AcDbEntity
  8
0
100
AcDbLine
 62
2
  6
CONTINUOUS
 10
42.7546497339
 20
21.3386916511
 11
42.7546497339
 21
26.3386916511
  0
LINE
  5
252
100
AcDbEntity
  8
0
100
AcDbLine
 62
2
  6
CONTINUOUS
 10
42.7546497339
 20
9.5874029571
 11
42.7546497339
 21
6.0874029571
  0
LINE
  5
253
100
AcDbEntity
  8
0
100
AcDbLine
 62
2
  6
CONTINUOUS
 10
42.7546497339
 20
6.0874029571
 11
42.7546497339
 21
9.2130473041
  0
LINE
  5
254
100
AcDbEntity
  8
0
100
AcDbLine
 62
2
  6
CONTINUOUS
 10
42.7546497339
 20
9.2130473041
 11
42.7546497339
 21
4.5874029571
  0
INSERT
  5
255
100
AcDbEntity
  8
0
100
AcDbBlockReference
 62
2
  6
CONTINUOUS
  2
_FILLED
 10
42.7546497339
 20
21.3386916511
 41
3.5
 42
3.5
 43
3.5
 50
270.0
  0
INSERT
  5
256
100
AcDbEntity
  8
0
100
AcDbBlockReference
 62
2
  6
CONTINUOUS
  2
_FILLED
 10
42.7546497339
 20
9.5874029571
 41
3.5
 42
3.5
 43
3.5
 50
90.0
  0
ENDBLK
  5
257
100
AcDbEntity
  8
0
  6
BYBLOCK
 62
0
100
AcDbBlockEnd
  0
BLOCK
  5
258
100
AcDbEntity
  8
0
100
AcDbBlockBegin
 62
2
  6
CONTINUOUS
  2
*D5
 70
65
 10
0.0
 20
0.0
  3
*D5
  1

  0
TEXT
  5
259
100
AcDbEntity
  8
0
100
AcDbText
 62
2
  6
CONTINUOUS
 10
82.1508775868
 20
133.0447409314
  7
STANDARD
 40
2.5
  1
8
 72
5
 11
83.9699437347
 21
133.0447409314
100
AcDbText
  0
TEXT
  5
25A
100
AcDbEntity
  8
0
100
AcDbText
 62
2
  6
CONTINUOUS
 10
83.9699437347
 20
133.0447409314
  7
STANDARD
 40
2.5
  1
 mm
 72
5
 11
90.7209164973
 21
133.0447409314
100
AcDbText
  0
TEXT
  5
25B
100
AcDbEntity
  8
0
100
AcDbText
 62
2
  6
CONTINUOUS
 10
82.1508775868
 20
129.2947409314
  7
STANDARD
 40
2.5
  1
3/8"
 72
5
 11
88.6878425674
 21
129.2947409314
100
AcDbText
  0
LINE
  5
25C
100
AcDbEntity
  8
0
100
AcDbLine
 62
2
  6
CONTINUOUS
 10
62.8263792038
 20
134.2947409314
 11
57.8263792038
 21
134.2947409314
  0
LINE
  5
25D
100
AcDbEntity
  8
0
100
AcDbLine
 62
2
  6
CONTINUOUS
 10
70.8263792038
 20
134.2947409314
 11
80.9008775868
 21
134.2947409314
  0
INSERT
  5
25E
100
AcDbEntity
  8
0
100
AcDbBlockReference
 62
2
  6
CONTINUOUS
  2
_FILLED
 10
62.8263792038
 20
134.2947409314
 41
3.5
 42
3.5
 43
3.5
  0
INSERT
  5
25F
100
AcDbEntity
  8
0
100
AcDbBlockReference
 62
2
  6
CONTINUOUS
  2
_FILLED
 10
70.8263792038
 20
134.2947409314
 41
3.5
 42
3.5
 43
3.5
 50
180.0
  0
ENDBLK
  5
260
100
AcDbEntity
  8
0
  6
BYBLOCK
 62
0
100
AcDbBlockEnd
  0
BLOCK
  5
261
100
AcDbEntity
  8
0
100
AcDbBlockBegin
 62
2
  6
CONTINUOUS
  2
*D6
 70
65
 10
0.0
 20
0.0
  3
*D6
  1

  0
TEXT
  5
262
100
AcDbEntity
  8
0
100
AcDbText
 62
2
  6
CONTINUOUS
 10
38.4696302786
 20
105.8644969814
  7
STANDARD
 40
2.5
  1
8
 72
5
 11
40.2886964265
 21
105.8644969814
100
AcDbText
  0
TEXT
  5
263
100
AcDbEntity
  8
0
100
AcDbText
 62
2
  6
CONTINUOUS
 10
40.2886964265
 20
105.8644969814
  7
STANDARD
 40
2.5
  1
 mm
 72
5
 11
47.0396691891
 21
105.8644969814
100
AcDbText
  0
TEXT
  5
264
100
AcDbEntity
  8
0
100
AcDbText
 62
2
  6
CONTINUOUS
 10
39.4861672436
 20
102.1144969814
  7
STANDARD
 40
2.5
  1
3/8"
 72
5
 11
46.0231322241
 21
102.1144969814
100
AcDbText
  0
LINE
  5
265
100
AcDbEntity
  8
0
100
AcDbLine
 62
2
  6
CONTINUOUS
 10
53.3263792038
 20
109.3386916511
 11
41.2546497339
 21
109.3386916511
  0
LINE
  5
266
100
AcDbEntity
  8
0
100
AcDbLine
 62
2
  6
CONTINUOUS
 10
53.3263792038
 20
101.3386916511
 11
41.2546497339
 21
101.3386916511
  0
LINE
  5
267
100
AcDbEntity
  8
0
100
AcDbLine
 62
2
  6
CONTINUOUS
 10
42.7546497339
 20
109.3386916511
 11
42.7546497339
 21
114.3386916511
  0
LINE
  5
268
100
AcDbEntity
  8
0
100
AcDbLine
 62
2
  6
CONTINUOUS
 10
42.7546497339
 20
101.3386916511
 11
42.7546497339
 21
97.8386916511
  0
LINE
  5
269
100
AcDbEntity
  8
0
100
AcDbLine
 62
2
  6
CONTINUOUS
 10
42.7546497339
 20
97.8386916511
 11
42.7546497339
 21
100.8644969814
  0
LINE
  5
26A
100
AcDbEntity
  8
0
100
AcDbLine
 62
2
  6
CONTINUOUS
 10
42.7546497339
 20
100.8644969814
 11
42.7546497339
 21
96.3386916511
  0
INSERT
  5
26B
100
AcDbEntity
  8
0
100
AcDbBlockReference
 62
2
  6
CONTINUOUS
  2
_FILLED
 10
42.7546497339
 20
109.3386916511
 41
3.5
 42
3.5
 43
3.5
 50
270.0
  0
INSERT
  5
26C
100
AcDbEntity
  8
0
100
AcDbBlockReference
 62
2
  6
CONTINUOUS
  2
_FILLED
 10
42.7546497339
 20
101.3386916511
 41
3.5
 42
3.5
 43
3.5
 50
90.0
  0
ENDBLK
  5
26D
100
AcDbEntity
  8
0
  6
BYBLOCK
 62
0
100
AcDbBlockEnd
  0
BLOCK
  5
26E
100
AcDbEntity
  8
0
100
AcDbBlockBegin
 62
2
  6
CONTINUOUS
  2
*D7
 70
65
 10
0.0
 20
0.0
  3
*D7
  1

  0
TEXT
  5
26F
100
AcDbEntity
  8
0
100
AcDbText
 62
2
  6
CONTINUOUS
 10
37.5600972047
 20
60.0886916511
  7
STANDARD
 40
2.5
  1
80
 72
5
 11
41.1982295004
 21
60.0886916511
100
AcDbText
  0
TEXT
  5
270
100
AcDbEntity
  8
0
100
AcDbText
 62
2
  6
CONTINUOUS
 10
41.1982295004
 20
60.0886916511
  7
STANDARD
 40
2.5
  1
 mm
 72
5
 11
47.949202263
 21
60.0886916511
100
AcDbText
  0
TEXT
  5
271
100
AcDbEntity
  8
0
100
AcDbText
 62
2
  6
CONTINUOUS
 10
37.968657516
 20
56.3386916511
  7
STANDARD
 40
2.5
  1
3-1/8"
 72
5
 11
47.5406419517
 21
56.3386916511
100
AcDbText
  0
LINE
  5
272
100
AcDbEntity
  8
0
100
AcDbLine
 62
2
  6
CONTINUOUS
 10
53.3263792038
 20
101.3386916511
 11
41.2546497339
 21
101.3386916511
  0
LINE
  5
273
100
AcDbEntity
  8
0
100
AcDbLine
 62
2
  6
CONTINUOUS
 10
52.8263792038
 20
21.3386916511
 11
41.2546497339
 21
21.3386916511
  0
LINE
  5
274
100
AcDbEntity
  8
0
100
AcDbLine
 62
2
  6
CONTINUOUS
 10
42.7546497339
 20
101.3386916511
 11
42.7546497339
 21
63.8386916511
  0
LINE
  5
275
100
AcDbEntity
  8
0
100
AcDbLine
 62
2
  6
CONTINUOUS
 10
42.7546497339
 20
21.3386916511
 11
42.7546497339
 21
55.0886916511
  0
INSERT
  5
276
100
AcDbEntity
  8
0
100
AcDbBlockReference
 62
2
  6
CONTINUOUS
  2
_FILLED
 10
42.7546497339
 20
101.3386916511
 41
3.5
 42
3.5
 43
3.5
 50
90.0
  0
INSERT
  5
277
100
AcDbEntity
  8
0
100
AcDbBlockReference
 62
2
  6
CONTINUOUS
  2
_FILLED
 10
42.7546497339
 20
21.3386916511
 41
3.5
 42
3.5
 43
3.5
 50
270.0
  0
ENDBLK
  5
278
100
AcDbEntity
  8
0
  6
BYBLOCK
 62
0
100
AcDbBlockEnd
  0
BLOCK
  5
279
100
AcDbEntity
  8
0
100
AcDbBlockBegin
 62
2
  6
CONTINUOUS
  2
*D8
 70
65
 10
0.0
 20
0.0
  3
*D8
  1

  0
TEXT
  5
27A
100
AcDbEntity
  8
0
100
AcDbText
 62
2
  6
CONTINUOUS
 10
80.6654040356
 20
74.9363240191
  7
STANDARD
 40
2.5
  1
8
 72
5
 11
82.4844701835
 21
74.9363240191
100
AcDbText
  0
TEXT
  5
27B
100
AcDbEntity
  8
0
100
AcDbText
 62
2
  6
CONTINUOUS
 10
82.4844701835
 20
74.9363240191
  7
STANDARD
 40
2.5
  1
 mm
 72
5
 11
89.2354429461
 21
74.9363240191
100
AcDbText
  0
TEXT
  5
27C
100
AcDbEntity
  8
0
100
AcDbText
 62
2
  6
CONTINUOUS
 10
80.6654040356
 20
71.1863240191
  7
STANDARD
 40
2.5
  1
3/8"
 72
5
 11
87.2023690161
 21
71.1863240191
100
AcDbText
  0
LINE
  5
27D
100
AcDbEntity
  8
0
100
AcDbLine
 62
2
  6
CONTINUOUS
 10
62.8263792038
 20
76.1863240191
 11
57.8263792038
 21
76.1863240191
  0
LINE
  5
27E
100
AcDbEntity
  8
0
100
AcDbLine
 62
2
  6
CONTINUOUS
 10
70.8263792038
 20
76.1863240191
 11
79.4154040356
 21
76.1863240191
  0
INSERT
  5
27F
100
AcDbEntity
  8
0
100
AcDbBlockReference
 62
2
  6
CONTINUOUS
  2
_FILLED
 10
62.8263792038
 20
76.1863240191
 41
3.5
 42
3.5
 43
3.5
  0
INSERT
  5
280
100
AcDbEntity
  8
0
100
AcDbBlockReference
 62
2
  6
CONTINUOUS
  2
_FILLED
 10
70.8263792038
 20
76.1863240191
 41
3.5
 42
3.5
 43
3.5
 50
180.0
  0
ENDBLK
  5
281
100
AcDbEntity
  8
0
  6
BYBLOCK
 62
0
100
AcDbBlockEnd
  0
BLOCK
  5
282
100
AcDbEntity
  8
0
100
AcDbBlockBegin
  2
*T1
 70
1
 10
0.0
 20
0.0
  3
*T1
  1

  0
LINE
  5
283
100
AcDbEntity
  8
0
100
AcDbLine
 62
7
  6
CONTINUOUS
 10
0.0
 20
0.0
 11
148.0
 21
0.0
  0
LINE
  5
284
100
AcDbEntity
  8
0
100
AcDbLine
 62
7
  6
CONTINUOUS
 10
0.0
 20
0.0
 11
0.0
 21
-43.0
  0
LINE
  5
285
100
AcDbEntity
  8
0
100
AcDbLine
 62
7
  6
CONTINUOUS
 10
45.0
 20
-20.0
 11
148.0
 21
-20.0
  0
LINE
  5
286
100
AcDbEntity
  8
0
100
AcDbLine
 62
7
  6
CONTINUOUS
 10
45.0
 20
-28.0
 11
148.0
 21
-28.0
  0
LINE
  5
287
100
AcDbEntity
  8
0
100
AcDbLine
 62
7
  6
CONTINUOUS
 10
0.0
 20
-43.0
 11
148.0
 21
-43.0
  0
LINE
  5
288
100
AcDbEntity
  8
0
100
AcDbLine
 62
7
  6
CONTINUOUS
 10
45.0
 20
0.0
 11
45.0
 21
-43.0
  0
LINE
  5
289
100
AcDbEntity
  8
0
100
AcDbLine
 62
7
  6
CONTINUOUS
 10
143.0
 20
0.0
 11
143.0
 21
-20.0
  0
LINE
  5
28A
100
AcDbEntity
  8
0
100
AcDbLine
 62
7
  6
CONTINUOUS
 10
148.0
 20
0.0
 11
148.0
 21
-43.0
  0
TEXT
  5
28B
100
AcDbEntity
  8
NOTES
100
AcDbText
 62
7
  6
CONTINUOUS
 10
8.9659749243
 20
-9.175
  7
STANDARD
 40
8.0
  1
O
 72
5
 11
17.370644185
 21
-9.175
100
AcDbText
  0
TEXT
  5
28C
100
AcDbEntity
  8
NOTES
100
AcDbText
 62
7
  6
CONTINUOUS
 10
17.370644185
 20
-9.175
  7
STANDARD
 40
5.5
  1
RAC
 72
5
 11
33.9562472979
 21
-9.175
100
AcDbText
  0
TEXT
  5
28D
100
AcDbEntity
  8
NOTES
100
AcDbText
 62
7
  6
CONTINUOUS
 10
33.9562472979
 20
-4.425
  7
TEXTSTYLE_2
 40
3.0
  1
®
 72
5
 11
36.0340250757
 21
-4.425
100
AcDbText
  0
TEXT
  5
28E
100
AcDbEntity
  8
NOTES
100
AcDbText
 62
7
  6
CONTINUOUS
 10
9.5323389537
 20
-13.825
  7
TEXTSTYLE_2
 40
3.0
  1
D  E  C  O  R
 72
5
 11
34.3878945093
 21
-13.825
100
AcDbText
  0
TEXT
  5
28F
100
AcDbEntity
  8
NOTES
100
AcDbText
 62
7
  6
CONTINUOUS
 10
34.3878945093
 20
-13.825
  7
STANDARD
 40
2.5
  1
 
 72
5
 11
35.4676610463
 21
-13.825
100
AcDbText
  0
TEXT
  5
290
100
AcDbEntity
  8
NOTES
100
AcDbText
 62
7
  6
CONTINUOUS
 10
54.424270428
 20
-4.6
  7
STANDARD
 40
2.7
  1
Part name:
 72
5
 11
71.9375
 21
-4.6
100
AcDbText
  0
TEXT
  5
291
100
AcDbEntity
  8
NOTES
100
AcDbText
 62
7
  6
CONTINUOUS
 10
50.6211575875
 20
-11.35
  7
STANDARD
 40
2.7
  1
Designed by:
 72
5
 11
71.9375
 21
-11.35
100
AcDbText
  0
TEXT
  5
292
100
AcDbEntity
  8
NOTES
100
AcDbText
 62
7
  6
CONTINUOUS
 10
50.6211575875
 20
-18.1
  7
STANDARD
 40
2.7
  1
Designed on:
 72
5
 11
71.9375
 21
-18.1
100
AcDbText
  0
TEXT
  5
293
100
AcDbEntity
  8
NOTES
100
AcDbText
 62
2
  6
CONTINUOUS
 10
74.0625
 20
-4.6
  7
STANDARD
 40
2.7
  1
SX206
 72
5
 11
84.9045233463
 21
-4.6
100
AcDbText
  0
TEXT
  5
294
100
AcDbEntity
  8
NOTES
100
AcDbText
 62
2
  6
CONTINUOUS
 10
74.0625
 20
-11.35
  7
STANDARD
 40
2.7
  1
ORAC
 72
5
 11
85.0410992218
 21
-11.35
100
AcDbText
  0
TEXT
  5
295
100
AcDbEntity
  8
NOTES
100
AcDbText
 62
2
  6
CONTINUOUS
 10
74.0625
 20
-18.1
  7
STANDARD
 40
2.7
  1
09-May-2022 
 72
5
 11
96.9126945525
 21
-18.1
100
AcDbText
  0
TEXT
  5
296
100
AcDbEntity
  8
NOTES
100
AcDbText
 62
2
  6
CONTINUOUS
 10
146.5625
 20
-15.9620622568
  7
STANDARD
 40
1.5
  1
Version: 1.0 
 50
90.0
 72
5
 11
146.5625
 21
-4.0379377432
100
AcDbText
  0
TEXT
  5
297
100
AcDbEntity
  8
NOTES
100
AcDbText
 62
7
  6
CONTINUOUS
 10
10.5836575875
 20
-22.75
  7
STANDARD
 40
2.5
  1
Biekorfstraat 32
 72
5
 11
34.4163424125
 21
-22.75
100
AcDbText
  0
TEXT
  5
298
100
AcDbEntity
  8
NOTES
100
AcDbText
 62
7
  6
CONTINUOUS
 10
3.560311284
 20
-26.5
  7
STANDARD
 40
2.5
  1
8400 Oostende - Belgium
 72
5
 11
41.439688716
 21
-26.5
100
AcDbText
  0
TEXT
  5
299
100
AcDbEntity
  8
NOTES
100
AcDbText
 62
7
  6
CONTINUOUS
 10
3.9688715953
 20
-30.25
  7
STANDARD
 40
2.5
  1
Tel  +32 (0)59 80 32 52
 72
5
 11
41.0311284047
 21
-30.25
100
AcDbText
  0
TEXT
  5
29A
100
AcDbEntity
  8
NOTES
100
AcDbText
 62
7
  6
CONTINUOUS
 10
6.9017509728
 20
-34.0
  7
STANDARD
 40
2.5
  1
www.oracdecor.com
 72
5
 11
38.0982490272
 21
-34.0
100
AcDbText
  0
TEXT
  5
29B
100
AcDbEntity
  8
NOTES
100
AcDbText
 62
7
  6
CONTINUOUS
 10
6.9017509728
 20
-37.75
  7
STANDARD
 40
2.5
  1
info@oracdecor.com
 72
5
 11
38.0982490272
 21
-37.75
100
AcDbText
  0
TEXT
  5
29C
100
AcDbEntity
  8
NOTES
100
AcDbText
 62
7
  6
CONTINUOUS
 10
46.0625
 20
-23.375
  7
STANDARD
 40
2.5
  1
Unless otherwise specified: all dimensions are in millimeters 
 72
5
 11
137.5605544747
 21
-23.375
100
AcDbText
  0
TEXT
  5
29D
100
AcDbEntity
  8
NOTES
100
AcDbText
 62
7
  6
CONTINUOUS
 10
46.0625
 20
-27.125
  7
STANDARD
 40
2.5
  1
and inches, scale 1:1, length 2 meters
 72
5
 11
102.3660019455
 21
-27.125
100
AcDbText
  0
TEXT
  5
29E
100
AcDbEntity
  8
NOTES
100
AcDbText
 62
7
  6
CONTINUOUS
 10
46.0625
 20
-31.81
  7
STANDARD
 40
1.8
  1
All information in this document is Orac's exclusive property.  It may in no case 
 72
5
 11
133.5901264591
 21
-31.81
100
AcDbText
  0
TEXT
  5
29F
100
AcDbEntity
  8
NOTES
100
AcDbText
 62
7
  6
CONTINUOUS
 10
46.0625
 20
-34.87
  7
STANDARD
 40
1.8
  1
be reproduced, even partly, be communicated to a third party or used for any 
 72
5
 11
129.8990758755
 21
-34.87
100
AcDbText
  0
TEXT
  5
2A0
100
AcDbEntity
  8
NOTES
100
AcDbText
 62
7
  6
CONTINUOUS
 10
46.0625
 20
-37.93
  7
STANDARD
 40
1.8
  1
possible purpose without ORAC's express written permission. Further legal 
 72
5
 11
128.2321498054
 21
-37.93
100
AcDbText
  0
TEXT
  5
2A1
100
AcDbEntity
  8
NOTES
100
AcDbText
 62
7
  6
CONTINUOUS
 10
46.0625
 20
-40.99
  7
STANDARD
 40
1.8
  1
information can be found at https://www.oracdecor.com/en/general-sales-conditions
 72
5
 11
136.4547178988
 21
-40.99
100
AcDbText
  0
ENDBLK
  5
2A2
100
AcDbEntity
  8
0
  6
BYBLOCK
 62
0
100
AcDbBlockEnd
  0
ENDSEC
  0
SECTION
  2
ENTITIES
  0
VIEWPORT
  5
2A3
100
AcDbEntity
 67
1
  8
0
100
AcDbViewport
 10
148.5
 20
105.0
 30
0.0
 40
297.0
 41
210.0
 68
1
 69
1
 12
148.5
 22
105.0
 13
0.0
 23
0.0
 14
10.0
 24
10.0
 15
10.0
 25
10.0
 16
0.0
 26
0.0
 36
1.0
 17
0.0
 27
0.0
 37
0.0
 42
50.0
 43
0.0
 44
0.0
 45
210.0
 50
0.0
 51
0.0
 72
100
 90
32864
  1

281
0
 71
1
 74
0
110
0.0
120
0.0
130
0.0
111
1.0
121
0.0
131
0.0
112
0.0
122
1.0
132
0.0
 79
0
146
0.0
  0
DIMENSION
  5
2A4
100
AcDbEntity
 67
1
  8
0
100
AcDbDimension
 62
2
  6
CONTINUOUS
  2
*D0
 10
69.7871434019
 20
165.6408290525
 11
87.2628285301
 21
163.7658290525
 70
160
 71
1
 72
2
 41
0.9
 42
16.9607641981
  1
<> mm\P5/8"
  3
DIMSTYLE_1
100
AcDbAlignedDimension
 13
52.8263792038
 23
182.8661117553
 14
69.7871434019
 24
163.1408290525
100
AcDbRotatedDimension
  0
DIMENSION
  5
2A5
100
AcDbEntity
 67
1
  8
0
100
AcDbDimension
 62
2
  6
CONTINUOUS
  2
*D1
 10
52.8263792038
 20
34.4596025669
 11
84.8092349434
 21
32.5846025669
 70
160
 71
1
 72
2
 41
0.9
 42
18.0
  1
<> mm\P3/4"
  3
DIMSTYLE_2
100
AcDbAlignedDimension
 13
70.8263792038
 23
144.5874029571
 14
52.8263792038
 24
20.3386916511
 50
180.0
100
AcDbRotatedDimension
  0
DIMENSION
  5
2A6
100
AcDbEntity
 67
1
  8
0
100
AcDbDimension
 62
2
  6
CONTINUOUS
  2
*D2
 10
42.7546497339
 20
189.5874029571
 11
42.7546497339
 21
147.5880473041
 70
160
 71
2
 72
2
 41
0.9
 42
80.248711306
  1
<> mm\P3-1/8"
  3
DIMSTYLE_3
100
AcDbAlignedDimension
 13
54.3263792038
 23
109.3386916511
 14
53.5263792038
 24
189.5874029571
 50
90.0
100
AcDbRotatedDimension
  0
DIMENSION
  5
2A7
100
AcDbEntity
 67
1
  8
0
100
AcDbDimension
 62
2
  6
CONTINUOUS
  2
*D3
 10
101.2480242855
 20
189.5874029571
 11
101.2480242855
 21
97.7124029571
 70
160
 71
2
 72
2
 41
0.9
 42
180.0
  1
<> mm\P7-1/8"
  3
DIMSTYLE_3
100
AcDbAlignedDimension
 13
70.3263792038
 23
9.5874029571
 14
59.3317142302
 24
189.5874029571
 50
90.0
100
AcDbRotatedDimension
  0
DIMENSION
  5
2A8
100
AcDbEntity
 67
1
  8
0
100
AcDbDimension
 62
2
  6
CONTINUOUS
  2
*D4
 10
42.7546497339
 20
9.5874029571
 11
42.7546497339
 21
13.5880473041
 70
160
 71
2
 72
2
 41
0.9
 42
11.751288694
  1
<> mm\P1/2"
  3
DIMSTYLE_3
100
AcDbAlignedDimension
 13
53.8263792038
 23
21.3386916511
 14
66.9185359521
 24
9.5874029571
 50
270.0
100
AcDbRotatedDimension
  0
DIMENSION
  5
2A9
100
AcDbEntity
 67
1
  8
0
100
AcDbDimension
 62
2
  6
CONTINUOUS
  2
*D5
 10
70.8263792038
 20
134.2947409314
 11
86.4358970421
 21
132.4197409314
 70
160
 71
1
 72
2
 41
0.9
 42
8.0
  1
<> mm\P3/8"
  3
DIMSTYLE_4
100
AcDbAlignedDimension
 13
62.8263792038
 23
142.0023707838
 14
70.8263792038
 24
10.0874029571
100
AcDbRotatedDimension
  0
DIMENSION
  5
2AA
100
AcDbEntity
 67
1
  8
0
100
AcDbDimension
 62
2
  6
CONTINUOUS
  2
*D6
 10
42.7546497339
 20
101.3386916511
 11
42.7546497339
 21
105.2394969814
 70
160
 71
2
 72
2
 41
0.9
 42
8.0
  1
<> mm\P3/8"
  3
DIMSTYLE_4
100
AcDbAlignedDimension
 13
54.3263792038
 23
109.3386916511
 14
54.3263792038
 24
101.3386916511
 50
270.0
100
AcDbRotatedDimension
  0
DIMENSION
  5
2AB
100
AcDbEntity
 67
1
  8
0
100
AcDbDimension
 62
2
  6
CONTINUOUS
  2
*D7
 10
42.7546497339
 20
21.3386916511
 11
42.7546497339
 21
59.4636916511
 70
160
 71
2
 72
2
 41
0.9
 42
80.0
  1
<> mm\P3-1/8"
  3
DIMSTYLE_2
100
AcDbAlignedDimension
 13
54.3263792038
 23
101.3386916511
 14
53.8263792038
 24
21.3386916511
 50
270.0
100
AcDbRotatedDimension
  0
DIMENSION
  5
2AC
100
AcDbEntity
 67
1
  8
0
100
AcDbDimension
 62
2
  6
CONTINUOUS
  2
*D8
 10
70.8263792038
 20
76.1863240191
 11
84.9504234908
 21
74.3113240191
 70
160
 71
1
 72
2
 41
0.9
 42
8.0
  1
<> mm\P3/8"
  3
DIMSTYLE_2
100
AcDbAlignedDimension
 13
62.8263792038
 23
22.3386916511
 14
70.8263792038
 24
10.0874029571
100
AcDbRotatedDimension
  0
ACAD_TABLE
  5
2AD
100
AcDbEntity
 67
1
  8
0
 62
2
  6
CONTINUOUS
100
AcDbBlockReference
  2
*T1
 10
144.0
 20
48.0
 30
0.0
100
AcDbTable
342
       348
343
215
 11
1.0
 21
0.0
 31
0.0
 90
22
 91
4
 92
4
 93
0
 94
0
 95
0
 96
0
141
15.0
141
5.0
141
8.0
141
15.0
142
45.0
142
28.0
142
70.0
142
5.0
171
1
172
0
173
0
174
0
175
1
176
1
 91
41
178
0
145
0.0
301
CELL_VALUE
 90
4
  1
\A1;O\H5.5;RAC\fCG Triumvirate;\H3.0;\S®^ ;\PD  E  C  O  R\fCG Times;\H2.5; 
304
ACVALUE_END
170
5
140
8.0
 64
7
171
1
172
0
173
0
174
0
175
1
176
2
 91
41
178
0
145
0.0
301
CELL_VALUE
 90
4
  1
Part name:\PDesigned by:\PDesigned on:
304
ACVALUE_END
170
6
140
2.7
 64
7
171
1
172
0
173
0
174
0
175
1
176
2
 91
33
178
0
145
0.0
301
CELL_VALUE
 90
4
  1
SX206\PORAC\P09-May-2022 
304
ACVALUE_END
170
4
140
2.7
171
1
172
0
173
0
174
0
175
1
176
2
 91
33
178
0
145
1.5707963268
301
CELL_VALUE
 90
4
  1
Version: 1.0 
304
ACVALUE_END
170
6
140
1.5
171
1
172
0
173
0
174
0
175
1
176
3
 91
41
178
0
145
0.0
301
CELL_VALUE
 90
4
  1
Biekorfstraat 32\P8400 Oostende - Belgium\PTel  +32 (0)59 80 32 52\Pwww.oracdecor.com\Pinfo@oracdecor.com
304
ACVALUE_END
170
5
140
2.5
 64
7
171
1
172
0
173
1
174
0
175
1
176
1
 91
1
178
0
145
0.0
170
1
171
1
172
0
173
1
174
0
175
1
176
1
 91
1
178
0
145
0.0
170
1
171
1
172
0
173
1
174
0
175
1
176
1
 91
1
178
0
145
0.0
170
1
171
1
172
0
173
1
174
0
175
1
176
1
 91
1
178
0
145
0.0
170
1
171
1
172
0
173
0
174
0
175
3
176
1
 91
41
178
0
145
0.0
301
CELL_VALUE
 90
4
  1
Unless otherwise specified: all dimensions are in millimeters \Pand inches, scale 1:1, length 2 meters
304
ACVALUE_END
170
4
140
2.5
 64
7
171
1
172
0
173
1
174
0
175
1
176
1
 91
1
178
0
145
0.0
170
1
171
1
172
0
173
1
174
0
175
1
176
1
 91
1
178
0
145
0.0
170
1
171
1
172
0
173
1
174
0
175
1
176
1
 91
1
178
0
145
0.0
170
1
171
1
172
0
173
0
174
0
175
3
176
1
 91
41
178
0
145
0.0
301
CELL_VALUE
 90
4
  2
All information in this document is Orac's exclusive property.  It may in no case \Pbe reproduced, even partly, be communicated to a third party or used for any \Ppossible purpose without ORAC's express written permission. Further legal \Pinformation
  1
 can be found at https://www.oracdecor.com/en/general-sales-conditions
304
ACVALUE_END
170
4
140
1.8
 64
7
171
1
172
0
173
1
174
0
175
1
176
1
 91
1
178
0
145
0.0
170
1
171
1
172
0
173
1
174
0
175
1
176
1
 91
1
178
0
145
0.0
170
1
  0
TEXT
  5
2AE
100
AcDbEntity
 67
1
  8
NOTES
100
AcDbText
 62
2
  6
CONTINUOUS
 10
187.3264122149
 20
71.6175364036
  7
STANDARD
 40
2.5
  1
SCALE  
 72
5
 11
201.1299141604
 21
71.6175364036
100
AcDbText
  0
TEXT
  5
2AF
100
AcDbEntity
 67
1
  8
NOTES
100
AcDbText
 62
2
  6
CONTINUOUS
 10
201.1299141604
 20
71.6175364036
  7
STANDARD
 40
2.5
  1
1:2
 72
5
 11
205.9839997636
 21
71.6175364036
100
AcDbText
  0
LINE
  5
2B0
100
AcDbEntity
 67
1
  8
0
100
AcDbLine
 62
5
  6
CONTINUOUS
 10
0.0
 20
0.0
 11
0.0
 21
210.0
  0
LINE
  5
2B1
100
AcDbEntity
 67
1
  8
0
100
AcDbLine
 62
7
  6
CONTINUOUS
 10
5.0
 20
5.0
 11
5.0
 21
195.0
  0
LINE
  5
2B2
100
AcDbEntity
 67
1
  8
0
100
AcDbLine
 62
5
  6
CONTINUOUS
 10
0.0
 20
0.0
 11
297.0
 21
0.0
  0
LINE
  5
2B3
100
AcDbEntity
 67
1
  8
0
100
AcDbLine
 62
7
  6
CONTINUOUS
 10
5.0
 20
5.0
 11
292.0
 21
5.0
  0
LINE
  5
2B4
100
AcDbEntity
 67
1
  8
0
100
AcDbLine
 62
4
  6
CONTINUOUS
 10
148.5
 20
195.0
 11
148.5
 21
205.0
  0
LINE
  5
2B5
100
AcDbEntity
 67
1
  8
0
100
AcDbLine
 62
7
  6
CONTINUOUS
 10
5.0
 20
195.0
 11
292.0
 21
195.0
  0
LINE
  5
2B6
100
AcDbEntity
 67
1
  8
0
100
AcDbLine
 62
5
  6
CONTINUOUS
 10
0.0
 20
210.0
 11
297.0
 21
210.0
  0
LINE
  5
2B7
100
AcDbEntity
 67
1
  8
0
100
AcDbLine
 62
7
  6
CONTINUOUS
 10
292.0
 20
5.0
 11
292.0
 21
195.0
  0
LINE
  5
2B8
100
AcDbEntity
 67
1
  8
0
100
AcDbLine
 62
5
  6
CONTINUOUS
 10
297.0
 20
0.0
 11
297.0
 21
210.0
  0
LINE
  5
2B9
100
AcDbEntity
 67
1
  8
DTM_AXIS
100
AcDbLine
 62
7
  6
CONTINUOUS
 10
66.9185359521
 20
9.5874029571
 11
70.3263792038
 21
9.5874029571
  0
LINE
  5
2BA
100
AcDbEntity
 67
1
  8
DTM_AXIS
100
AcDbLine
 62
7
  6
CONTINUOUS
 10
66.7373626205
 20
9.6112548787
 11
53.5675601587
 21
13.1400928128
  0
LINE
  5
2BB
100
AcDbEntity
 67
1
  8
DTM_AXIS
100
AcDbLine
 62
7
  6
CONTINUOUS
 10
53.8263792038
 20
21.3386916511
 11
61.8263792038
 21
21.3386916511
  0
LINE
  5
2BC
100
AcDbEntity
 67
1
  8
DTM_AXIS
100
AcDbLine
 62
7
  6
CONTINUOUS
 10
52.8979025129
 20
184.5162112299
 11
53.1778229333
 21
185.2160122807
  0
LINE
  5
2BD
100
AcDbEntity
 67
1
  8
DTM_AXIS
100
AcDbLine
 62
7
  6
CONTINUOUS
 10
53.1778229333
 20
17.7100823275
 11
52.8979025129
 21
18.4098833783
  0
LINE
  5
2BE
100
AcDbEntity
 67
1
  8
DTM_AXIS
100
AcDbLine
 62
7
  6
CONTINUOUS
 10
52.8263792038
 20
188.8874029571
 11
52.8263792038
 21
187.0299853607
  0
LINE
  5
2BF
100
AcDbEntity
 67
1
  8
DTM_AXIS
100
AcDbLine
 62
7
  6
CONTINUOUS
 10
52.8263792038
 20
184.1448205535
 11
52.8263792038
 21
181.5874029571
  0
LINE
  5
2C0
100
AcDbEntity
 67
1
  8
DTM_AXIS
100
AcDbLine
 62
7
  6
CONTINUOUS
 10
52.8263792038
 20
20.3386916511
 11
52.8263792038
 21
18.7812740547
  0
LINE
  5
2C1
100
AcDbEntity
 67
1
  8
DTM_AXIS
100
AcDbLine
 62
7
  6
CONTINUOUS
 10
52.8263792038
 20
15.8961092476
 11
52.8263792038
 21
14.1060186391
  0
LINE
  5
2C2
100
AcDbEntity
 67
1
  8
DTM_AXIS
100
AcDbLine
 62
7
  6
CONTINUOUS
 10
53.3263792038
 20
102.3386916511
 11
53.3263792038
 21
108.3386916511
  0
LINE
  5
2C3
100
AcDbEntity
 67
1
  8
DTM_AXIS
100
AcDbLine
 62
7
  6
CONTINUOUS
 10
54.3263792038
 20
153.8146285321
 11
54.3263792038
 21
158.0646285321
  0
LINE
  5
2C4
100
AcDbEntity
 67
1
  8
DTM_AXIS
100
AcDbLine
 62
7
  6
CONTINUOUS
 10
62.3263792038
 20
154.3146285321
 11
62.3263792038
 21
157.6916078973
  0
LINE
  5
2C5
100
AcDbEntity
 67
1
  8
DTM_AXIS
100
AcDbLine
 62
7
  6
CONTINUOUS
 10
62.8263792038
 20
22.3386916511
 11
62.8263792038
 21
100.3386916511
  0
LINE
  5
2C6
100
AcDbEntity
 67
1
  8
DTM_AXIS
100
AcDbLine
 62
7
  6
CONTINUOUS
 10
62.8263792038
 20
110.3386916511
 11
62.8263792038
 21
142.0023707838
  0
LINE
  5
2C7
100
AcDbEntity
 67
1
  8
DTM_AXIS
100
AcDbLine
 62
7
  6
CONTINUOUS
 10
65.8263792038
 20
150.5034827402
 11
65.8263792038
 21
153.3146285321
  0
LINE
  5
2C8
100
AcDbEntity
 67
1
  8
DTM_AXIS
100
AcDbLine
 62
7
  6
CONTINUOUS
 10
61.8263792038
 20
101.3386916511
 11
54.3263792038
 21
101.3386916511
  0
LINE
  5
2C9
100
AcDbEntity
 67
1
  8
DTM_AXIS
100
AcDbLine
 62
7
  6
CONTINUOUS
 10
70.8263792038
 20
10.0874029571
 11
70.8263792038
 21
144.5874029571
  0
LINE
  5
2CA
100
AcDbEntity
 67
1
  8
DTM_AXIS
100
AcDbLine
 62
7
  6
CONTINUOUS
 10
54.3263792038
 20
109.3386916511
 11
61.8263792038
 21
109.3386916511
  0
LINE
  5
2CB
100
AcDbEntity
 67
1
  8
DTM_AXIS
100
AcDbLine
 62
7
  6
CONTINUOUS
 10
52.8979025129
 20
16.2674999239
 11
53.1778229333
 21
16.9673009748
  0
LINE
  5
2CC
100
AcDbEntity
 67
1
  8
DTM_AXIS
100
AcDbLine
 62
7
  6
CONTINUOUS
 10
53.1778229333
 20
185.9587936334
 11
52.8979025129
 21
186.6585946843
  0
LINE
  5
2CD
100
AcDbEntity
 67
1
  8
DTM_AXIS
100
AcDbLine
 62
7
  6
CONTINUOUS
 10
59.9779370579
 20
144.6060825293
 11
56.4779370579
 21
148.3560825293
  0
LINE
  5
2CE
100
AcDbEntity
 67
1
  8
DTM_AXIS
100
AcDbLine
 62
7
  6
CONTINUOUS
 10
65.3263792038
 20
153.8146285321
 11
62.8263792038
 21
153.8146285321
  0
LINE
  5
2CF
100
AcDbEntity
 67
1
  8
DTM_AXIS
100
AcDbLine
 62
7
  6
CONTINUOUS
 10
59.3317142302
 20
189.5874029571
 11
53.5263792038
 21
189.5874029571
  0
LINE
  5
2D0
100
AcDbEntity
 67
1
  8
DTM_AXIS
100
AcDbLine
 62
7
  6
CONTINUOUS
 10
192.4047055589
 20
76.8996200769
 11
185.858688478
 21
78.7927186847
  0
LINE
  5
2D1
100
AcDbEntity
 67
1
  8
DTM_AXIS
100
AcDbLine
 62
7
  6
CONTINUOUS
 10
194.2079664235
 20
76.8525442178
 11
224.9099814035
 21
77.5016664884
  0
LINE
  5
2D2
100
AcDbEntity
 67
1
  8
DTM_AXIS
100
AcDbLine
 62
7
  6
CONTINUOUS
 10
194.4525162143
 20
77.0975900817
 11
225.1545311943
 21
77.7467123523
  0
LINE
  5
2D3
100
AcDbEntity
 67
1
  8
DTM_AXIS
100
AcDbLine
 62
7
  6
CONTINUOUS
 10
194.1977909506
 20
76.8525364036
 11
194.2079662748
 21
76.8525511941
  0
LINE
  5
2D4
100
AcDbEntity
 67
1
  8
DTM_AXIS
100
AcDbLine
 62
7
  6
CONTINUOUS
 10
192.4949988557
 20
76.8859215332
 11
194.1977909506
 21
76.8525364036
  0
LINE
  5
2D5
100
AcDbEntity
 67
1
  8
DTM_AXIS
100
AcDbLine
 62
7
  6
CONTINUOUS
 10
190.0859098699
 20
82.8103473378
 11
190.065559123
 21
82.8103223353
  0
LINE
  5
2D6
100
AcDbEntity
 67
1
  8
DTM_AXIS
100
AcDbLine
 62
7
  6
CONTINUOUS
 10
186.068210726
 20
82.8886947889
 11
190.065559123
 21
82.8103223353
  0
LINE
  5
2D7
100
AcDbEntity
 67
1
  8
DTM_AXIS
100
AcDbLine
 62
7
  6
CONTINUOUS
 10
186.068210726
 20
82.8886947889
 11
190.4515932987
 21
82.9813711572
  0
LINE
  5
2D8
100
AcDbEntity
 67
1
  8
DTM_AXIS
100
AcDbLine
 62
7
  6
CONTINUOUS
 10
186.068210726
 20
82.8886947889
 11
186.047859979
 21
82.8886697864
  0
LINE
  5
2D9
100
AcDbEntity
 67
1
  8
DTM_AXIS
100
AcDbLine
 62
7
  6
CONTINUOUS
 10
187.2004789846
 20
164.4708711989
 11
187.3471918533
 21
164.8179622262
  0
LINE
  5
2DA
100
AcDbEntity
 67
1
  8
DTM_AXIS
100
AcDbLine
 62
7
  6
CONTINUOUS
 10
185.7086525794
 20
81.0810924079
 11
185.5756305872
 21
81.4336679477
  0
LINE
  5
2DB
100
AcDbEntity
 67
1
  8
DTM_AXIS
100
AcDbLine
 62
7
  6
CONTINUOUS
 10
187.2074999366
 20
166.6567477295
 11
187.189330719
 21
165.7282174051
  0
LINE
  5
2DC
100
AcDbEntity
 67
1
  8
DTM_AXIS
100
AcDbLine
 62
7
  6
CONTINUOUS
 10
187.1611081012
 20
164.2859122287
 11
187.1360914992
 21
163.0074491653
  0
LINE
  5
2DD
100
AcDbEntity
 67
1
  8
DTM_AXIS
100
AcDbLine
 62
7
  6
CONTINUOUS
 10
185.5587601986
 20
82.3985874327
 11
185.5435255744
 21
81.6200282822
  0
LINE
  5
2DE
100
AcDbEntity
 67
1
  8
DTM_AXIS
100
AcDbLine
 62
7
  6
CONTINUOUS
 10
185.5153029566
 20
80.1777231057
 11
185.4977923301
 21
79.2828498061
  0
LINE
  5
2DF
100
AcDbEntity
 67
1
  8
DTM_AXIS
100
AcDbLine
 62
7
  6
CONTINUOUS
 10
186.6107166461
 20
123.3858100125
 11
186.6694085124
 21
126.3852334899
  0
LINE
  5
2E0
100
AcDbEntity
 67
1
  8
DTM_AXIS
100
AcDbLine
 62
7
  6
CONTINUOUS
 10
187.6139216632
 20
149.109035723
 11
187.6554950684
 21
151.2336273529
  0
LINE
  5
2E1
100
AcDbEntity
 67
1
  8
DTM_AXIS
100
AcDbLine
 62
7
  6
CONTINUOUS
 10
191.616161049
 20
149.2806152259
 11
191.6491945859
 21
150.9687804243
  0
LINE
  5
2E2
100
AcDbEntity
 67
1
  8
DTM_AXIS
100
AcDbLine
 62
7
  6
CONTINUOUS
 10
190.5750096503
 20
83.3004296915
 11
191.3380039121
 21
122.292934898
  0
LINE
  5
2E3
100
AcDbEntity
 67
1
  8
DTM_AXIS
100
AcDbLine
 62
7
  6
CONTINUOUS
 10
191.4358236892
 20
127.2919740271
 11
191.7455570929
 21
143.1207711225
  0
LINE
  5
2E4
100
AcDbEntity
 67
1
  8
DTM_AXIS
100
AcDbLine
 62
7
  6
CONTINUOUS
 10
193.3277204295
 20
147.3411205834
 11
193.3552189949
 21
148.7464233645
  0
LINE
  5
2E5
100
AcDbEntity
 67
1
  8
DTM_AXIS
100
AcDbLine
 62
7
  6
CONTINUOUS
 10
194.4525162143
 20
77.0975900817
 11
195.768192217
 21
144.3346663673
  0
LINE
  5
2E6
100
AcDbEntity
 67
1
  8
DTM_AXIS
100
AcDbLine
 62
7
  6
CONTINUOUS
 10
185.55467384
 20
80.3626820759
 11
185.7013867088
 21
80.7097731032
  0
LINE
  5
2E7
100
AcDbEntity
 67
1
  8
DTM_AXIS
100
AcDbLine
 62
7
  6
CONTINUOUS
 10
190.8481173402
 20
122.8026353676
 11
187.100603218
 21
122.8761095429
  0
LINE
  5
2E8
100
AcDbEntity
 67
1
  8
DTM_AXIS
100
AcDbLine
 62
7
  6
CONTINUOUS
 10
187.354457724
 20
165.1892815308
 11
187.2214357318
 21
165.5418570707
  0
LINE
  5
2E9
100
AcDbEntity
 67
1
  8
DTM_AXIS
100
AcDbLine
 62
7
  6
CONTINUOUS
 10
190.3477495874
 20
144.4502817371
 11
188.6355920802
 21
146.3592093589
  0
LINE
  5
2EA
100
AcDbEntity
 67
1
  8
DTM_AXIS
100
AcDbLine
 62
7
  6
CONTINUOUS
 10
191.30319296
 20
126.9625402368
 11
187.1788590397
 21
126.8753408461
  0
LINE
  5
2EB
100
AcDbEntity
 67
1
  8
DTM_AXIS
100
AcDbLine
 62
7
  6
CONTINUOUS
 10
190.9467239089
 20
126.8018916734
 11
190.9263731619
 21
126.8018666709
  0
LINE
  5
2EC
100
AcDbEntity
 67
1
  8
DTM_AXIS
100
AcDbLine
 62
7
  6
CONTINUOUS
 10
187.1788590397
 20
126.8753408461
 11
187.1585082927
 21
126.8753158436
  0
LINE
  5
2ED
100
AcDbEntity
 67
1
  8
DTM_AXIS
100
AcDbLine
 62
7
  6
CONTINUOUS
 10
187.1788590397
 20
126.8753408461
 11
190.9263731619
 21
126.8018666709
  0
LINE
  5
2EE
100
AcDbEntity
 67
1
  8
DTM_AXIS
100
AcDbLine
 62
7
  6
CONTINUOUS
 10
222.318176029
 20
149.9297374965
 11
222.3512095659
 21
151.6179026949
  0
LINE
  5
2EF
100
AcDbEntity
 67
1
  8
DTM_AXIS
100
AcDbLine
 62
7
  6
CONTINUOUS
 10
224.0297354095
 20
147.990242854
 11
224.0572339749
 21
149.3955456352
  0
LINE
  5
2F0
100
AcDbEntity
 67
1
  8
DTM_AXIS
100
AcDbLine
 62
7
  6
CONTINUOUS
 10
225.1545311943
 20
77.7467123523
 11
226.470207197
 21
144.9837886379
  0
LINE
  5
2F1
100
AcDbEntity
 67
1
  8
DTM_AXIS
100
AcDbLine
 62
7
  6
CONTINUOUS
 10
226.470207197
 20
144.9837886379
 11
195.768192217
 21
144.3346663673
  0
LINE
  5
2F2
100
AcDbEntity
 67
1
  8
DTM_AXIS
100
AcDbLine
 62
7
  6
CONTINUOUS
 10
224.2331080584
 20
147.7397050027
 11
193.5310930784
 21
147.0905827321
  0
LINE
  5
2F3
100
AcDbEntity
 67
1
  8
DTM_AXIS
100
AcDbLine
 62
7
  6
CONTINUOUS
 10
224.0297354095
 20
147.990242854
 11
193.3277204295
 21
147.3411205834
  0
LINE
  5
2F4
100
AcDbEntity
 67
1
  8
DTM_AXIS
100
AcDbLine
 62
7
  6
CONTINUOUS
 10
193.3552189949
 20
148.7464233645
 11
224.0572339749
 21
149.3955456352
  0
LINE
  5
2F5
100
AcDbEntity
 67
1
  8
DTM_AXIS
100
AcDbLine
 62
7
  6
CONTINUOUS
 10
193.110275709
 20
149.0012735993
 11
191.8611043349
 21
149.0257649911
  0
LINE
  5
2F6
100
AcDbEntity
 67
1
  8
DTM_AXIS
100
AcDbLine
 62
7
  6
CONTINUOUS
 10
193.110275709
 20
149.0012735993
 11
223.812290689
 21
149.65039587
  0
LINE
  5
2F7
100
AcDbEntity
 67
1
  8
DTM_AXIS
100
AcDbLine
 62
7
  6
CONTINUOUS
 10
222.5631193149
 20
149.6748872617
 11
191.8611043349
 21
149.0257649911
  0
LINE
  5
2F8
100
AcDbEntity
 67
1
  8
DTM_AXIS
100
AcDbLine
 62
7
  6
CONTINUOUS
 10
222.318176029
 20
149.9297374965
 11
191.616161049
 21
149.2806152259
  0
LINE
  5
2F9
100
AcDbEntity
 67
1
  8
DTM_AXIS
100
AcDbLine
 62
7
  6
CONTINUOUS
 10
222.3512095659
 20
151.6179026949
 11
191.6491945859
 21
150.9687804243
  0
LINE
  5
2FA
100
AcDbEntity
 67
1
  8
DTM_AXIS
100
AcDbLine
 62
7
  6
CONTINUOUS
 10
222.5316033738
 20
151.853158769
 11
191.8295883938
 21
151.2040364984
  0
LINE
  5
2FB
100
AcDbEntity
 67
1
  8
DTM_AXIS
100
AcDbLine
 62
7
  6
CONTINUOUS
 10
223.812290689
 20
149.65039587
 11
222.5631193149
 21
149.6748872617
  0
LINE
  5
2FC
100
AcDbEntity
 67
1
  8
DTM_AXIS
100
AcDbLine
 62
7
  6
CONTINUOUS
 10
190.7098301768
 20
166.6898610166
 11
221.4118451568
 21
167.3389832872
  0
LINE
  5
2FD
100
AcDbEntity
 67
1
  8
DTM_AXIS
100
AcDbLine
 62
7
  6
CONTINUOUS
 10
190.4648586384
 20
166.9429505851
 11
221.1668736184
 21
167.5920728557
  0
LINE
  5
2FE
100
AcDbEntity
 67
1
  8
DTM_AXIS
100
AcDbLine
 62
7
  6
CONTINUOUS
 10
187.5641153057
 20
166.9998228788
 11
218.2661302857
 21
167.6489451495
  0
LINE
  5
2FF
100
AcDbEntity
 67
1
  8
DTM_AXIS
100
AcDbLine
 62
7
  6
CONTINUOUS
 10
187.5641153057
 20
166.9998228788
 11
187.5498697828
 21
166.9998053771
  0
LINE
  5
300
100
AcDbEntity
 67
1
  8
DTM_AXIS
100
AcDbLine
 62
7
  6
CONTINUOUS
 10
218.2518847628
 20
167.6489276477
 11
218.2661302857
 21
167.6489451495
  0
LINE
  5
301
100
AcDbEntity
 67
1
  8
DTM_AXIS
100
AcDbLine
 62
7
  6
CONTINUOUS
 10
190.4648586384
 20
166.9429505851
 11
187.5641153057
 21
166.9998228788
  0
LINE
  5
302
100
AcDbEntity
 67
1
  8
DTM_AXIS
100
AcDbLine
 62
7
  6
CONTINUOUS
 10
221.1668736184
 20
167.5920728557
 11
218.2661302857
 21
167.6489451495
  0
ARC
  5
303
100
AcDbEntity
 67
1
  8
DTM_AXIS
100
AcDbCircle
 62
7
  6
CONTINUOUS
 10
70.3556553713
 20
181.5874029571
 40
17.5292761675
100
AcDbArc
 50
180.0
 51
225.2813277138
  0
ARC
  5
304
100
AcDbEntity
 67
1
  8
DTM_AXIS
100
AcDbCircle
 62
7
  6
CONTINUOUS
 10
62.3263792038
 20
158.0646285321
 40
8.0
100
AcDbArc
 50
125.6788965039
 51
180.0
  0
ARC
  5
305
100
AcDbEntity
 67
1
  8
DTM_AXIS
100
AcDbCircle
 62
7
  6
CONTINUOUS
 10
62.3263792038
 20
153.8146285321
 40
8.0
100
AcDbArc
 50
180.0
 51
223.0250659891
  0
ARC
  5
306
100
AcDbEntity
 67
1
  8
DTM_AXIS
100
AcDbCircle
 62
7
  6
CONTINUOUS
 10
65.8263792038
 20
150.0646285321
 40
8.0
100
AcDbArc
 50
223.0250659891
 51
243.6122000388
  0
ARC
  5
307
100
AcDbEntity
 67
1
  8
DTM_AXIS
100
AcDbCircle
 62
7
  6
CONTINUOUS
 10
65.3263792038
 20
144.5874029571
 40
5.5
100
AcDbArc
 50
0.0
 51
80.4059317731
  0
ARC
  5
308
100
AcDbEntity
 67
1
  8
DTM_AXIS
100
AcDbCircle
 62
7
  6
CONTINUOUS
 10
55.9107165359
 20
166.9999109861
 40
3.0
100
AcDbArc
 50
305.6788965039
 51
45.2813277138
  0
ARC
  5
309
100
AcDbEntity
 67
1
  8
DTM_AXIS
100
AcDbCircle
 62
7
  6
CONTINUOUS
 10
53.8263792038
 20
187.0299853607
 40
1.0
100
AcDbArc
 50
180.0
 51
201.8014094863
  0
ARC
  5
30A
100
AcDbEntity
 67
1
  8
DTM_AXIS
100
AcDbCircle
 62
7
  6
CONTINUOUS
 10
53.8263792038
 20
184.1448205535
 40
1.0
100
AcDbArc
 50
158.1985905136
 51
180.0
  0
ARC
  5
30B
100
AcDbEntity
 67
1
  8
DTM_AXIS
100
AcDbCircle
 62
7
  6
CONTINUOUS
 10
54.3263792038
 20
108.3386916511
 40
1.0
100
AcDbArc
 50
90.0
 51
180.0
  0
ARC
  5
30C
100
AcDbEntity
 67
1
  8
DTM_AXIS
100
AcDbCircle
 62
7
  6
CONTINUOUS
 10
54.3263792038
 20
102.3386916511
 40
1.0
100
AcDbArc
 50
180.0
 51
270.0
  0
ARC
  5
30D
100
AcDbEntity
 67
1
  8
DTM_AXIS
100
AcDbCircle
 62
7
  6
CONTINUOUS
 10
53.8263792038
 20
20.3386916511
 40
1.0
100
AcDbArc
 50
90.0
 51
180.0
  0
ARC
  5
30E
100
AcDbEntity
 67
1
  8
DTM_AXIS
100
AcDbCircle
 62
7
  6
CONTINUOUS
 10
53.8263792038
 20
18.7812740547
 40
1.0
100
AcDbArc
 50
180.0
 51
201.8014094864
  0
ARC
  5
30F
100
AcDbEntity
 67
1
  8
DTM_AXIS
100
AcDbCircle
 62
7
  6
CONTINUOUS
 10
53.8263792038
 20
15.8961092476
 40
1.0
100
AcDbArc
 50
158.1985905136
 51
180.0
  0
ARC
  5
310
100
AcDbEntity
 67
1
  8
DTM_AXIS
100
AcDbCircle
 62
7
  6
CONTINUOUS
 10
53.8263792038
 20
14.1060186391
 40
1.0
100
AcDbArc
 50
180.0
 51
255.0
  0
ARC
  5
311
100
AcDbEntity
 67
1
  8
DTM_AXIS
100
AcDbCircle
 62
7
  6
CONTINUOUS
 10
52.2493462424
 20
185.5874029571
 40
1.0
100
AcDbArc
 50
338.1985905137
 51
21.8014094864
  0
ARC
  5
312
100
AcDbEntity
 67
1
  8
DTM_AXIS
100
AcDbCircle
 62
7
  6
CONTINUOUS
 10
61.8263792038
 20
142.0023707838
 40
1.0
100
AcDbArc
 50
0.0
 51
63.6122000388
  0
ARC
  5
313
100
AcDbEntity
 67
1
  8
DTM_AXIS
100
AcDbCircle
 62
7
  6
CONTINUOUS
 10
61.8263792038
 20
110.3386916511
 40
1.0
100
AcDbArc
 50
270.0
 51
360.0
  0
ARC
  5
314
100
AcDbEntity
 67
1
  8
DTM_AXIS
100
AcDbCircle
 62
7
  6
CONTINUOUS
 10
61.8263792038
 20
100.3386916511
 40
1.0
100
AcDbArc
 50
0.0
 51
90.0
  0
ARC
  5
315
100
AcDbEntity
 67
1
  8
DTM_AXIS
100
AcDbCircle
 62
7
  6
CONTINUOUS
 10
61.8263792038
 20
22.3386916511
 40
1.0
100
AcDbArc
 50
270.0
 51
360.0
  0
ARC
  5
316
100
AcDbEntity
 67
1
  8
DTM_AXIS
100
AcDbCircle
 62
7
  6
CONTINUOUS
 10
52.2493462424
 20
17.3386916511
 40
1.0
100
AcDbArc
 50
338.1985905136
 51
21.8014094864
  0
ARC
  5
317
100
AcDbEntity
 67
1
  8
DTM_AXIS
100
AcDbCircle
 62
7
  6
CONTINUOUS
 10
53.5263792038
 20
188.8874029571
 40
0.7
100
AcDbArc
 50
90.0
 51
180.0
  0
ARC
  5
318
100
AcDbEntity
 67
1
  8
DTM_AXIS
100
AcDbCircle
 62
7
  6
CONTINUOUS
 10
66.9185359521
 20
10.2874029571
 40
0.7
100
AcDbArc
 50
255.0
 51
270.0
  0
ARC
  5
319
100
AcDbEntity
 67
1
  8
DTM_AXIS
100
AcDbCircle
 62
7
  6
CONTINUOUS
 10
70.3263792038
 20
10.0874029571
 40
0.5
100
AcDbArc
 50
270.0
 51
360.0
  0
ARC
  5
31A
100
AcDbEntity
 67
1
  8
DTM_AXIS
100
AcDbCircle
 62
7
  6
CONTINUOUS
 10
65.3263792038
 20
153.3146285321
 40
0.5
100
AcDbArc
 50
0.0
 51
90.0
  0
ARC
  5
31B
100
AcDbEntity
 67
1
  8
DTM_AXIS
100
AcDbCircle
 62
7
  6
CONTINUOUS
 10
59.3317142302
 20
189.0874029571
 40
0.5
100
AcDbArc
 50
0.4035680345
 51
90.0
  0
ARC
  5
31C
100
AcDbEntity
 67
1
  8
DTM_AXIS
100
AcDbCircle
 62
7
  6
CONTINUOUS
 10
66.3263792038
 20
150.5034827402
 40
0.5
100
AcDbArc
 50
180.0
 51
260.4059317731
  0
ARC
  5
31D
100
AcDbEntity
 67
1
  8
DTM_AXIS
100
AcDbCircle
 62
7
  6
CONTINUOUS
 10
62.8263792038
 20
154.3146285321
 40
0.5
100
AcDbArc
 50
180.0
 51
270.0
  0
ARC
  5
31E
100
AcDbEntity
 67
1
  8
DTM_AXIS
100
AcDbCircle
 62
7
  6
CONTINUOUS
 10
62.8263792038
 20
157.6916078973
 40
0.5
100
AcDbArc
 50
107.2560172234
 51
180.0
  0
ARC
  5
31F
100
AcDbEntity
 67
1
  8
DTM_AXIS
100
AcDbCircle
 62
7
  6
CONTINUOUS
 10
195.9014622112
 20
162.8355995606
 40
8.7670448136
100
AcDbArc
 50
178.8768306423
 51
224.142331606
  0
ARC
  5
320
100
AcDbEntity
 67
1
  8
DTM_AXIS
100
AcDbCircle
 62
7
  6
CONTINUOUS
 10
191.6143306852
 20
149.0306253309
 40
4.0011733585
100
AcDbArc
 50
178.877112485
 51
221.8866416384
  0
ARC
  5
321
100
AcDbEntity
 67
1
  8
DTM_AXIS
100
AcDbCircle
 62
7
  6
CONTINUOUS
 10
191.6551599207
 20
151.1556739514
 40
4.0004125636
100
AcDbArc
 50
124.5751137538
 51
178.8834475735
  0
ARC
  5
322
100
AcDbEntity
 67
1
  8
DTM_AXIS
100
AcDbCircle
 62
7
  6
CONTINUOUS
 10
193.324406803
 20
147.1200356961
 40
3.9985090198
100
AcDbArc
 50
221.8888246213
 51
242.4777917471
  0
ARC
  5
323
100
AcDbEntity
 67
1
  8
DTM_AXIS
100
AcDbCircle
 62
7
  6
CONTINUOUS
 10
223.7209577255
 20
145.0380982957
 40
2.7497555424
100
AcDbArc
 50
358.8683058629
 51
79.2656753804
  0
ARC
  5
324
100
AcDbEntity
 67
1
  8
DTM_AXIS
100
AcDbCircle
 62
7
  6
CONTINUOUS
 10
193.0189427455
 20
144.3889760251
 40
2.7497555424
100
AcDbArc
 50
358.8683058629
 51
79.2656753804
  0
ARC
  5
325
100
AcDbEntity
 67
1
  8
DTM_AXIS
100
AcDbCircle
 62
7
  6
CONTINUOUS
 10
188.5334171077
 20
155.6848761118
 40
1.5004350862
100
AcDbArc
 50
304.5800851645
 51
44.143088123
  0
ARC
  5
326
100
AcDbEntity
 67
1
  8
DTM_AXIS
100
AcDbCircle
 62
7
  6
CONTINUOUS
 10
186.8864220924
 20
165.0127091785
 40
0.5002350928
100
AcDbArc
 50
337.0883743337
 51
20.6696167241
  0
ARC
  5
327
100
AcDbEntity
 67
1
  8
DTM_AXIS
100
AcDbCircle
 62
7
  6
CONTINUOUS
 10
185.2406169478
 20
80.9045200555
 40
0.5002350928
100
AcDbArc
 50
337.0883743337
 51
20.6696167241
  0
ARC
  5
328
100
AcDbEntity
 67
1
  8
DTM_AXIS
100
AcDbCircle
 62
7
  6
CONTINUOUS
 10
191.2456041232
 20
143.1305985705
 40
0.5000495482
100
AcDbArc
 50
358.8738964933
 51
62.4709440452
  0
ARC
  5
329
100
AcDbEntity
 67
1
  8
DTM_AXIS
100
AcDbCircle
 62
7
  6
CONTINUOUS
 10
185.9976867317
 20
79.2729915581
 40
0.4999872843
100
AcDbArc
 50
178.8702357944
 51
253.8587548501
  0
ARC
  5
32A
100
AcDbEntity
 67
1
  8
DTM_AXIS
100
AcDbCircle
 62
7
  6
CONTINUOUS
 10
190.9360040846
 20
127.3016530585
 40
0.4999072212
100
AcDbArc
 50
271.2161712233
 51
358.8906030476
  0
ARC
  5
32B
100
AcDbEntity
 67
1
  8
DTM_AXIS
100
AcDbCircle
 62
7
  6
CONTINUOUS
 10
190.0751900457
 20
83.310108723
 40
0.4999072212
100
AcDbArc
 50
271.2161712234
 51
358.8906030476
  0
ARC
  5
32C
100
AcDbEntity
 67
1
  8
DTM_AXIS
100
AcDbCircle
 62
7
  6
CONTINUOUS
 10
187.1105323772
 20
123.3759084023
 40
0.4999052936
100
AcDbArc
 50
178.865089197
 51
268.8618939823
  0
ARC
  5
32D
100
AcDbEntity
 67
1
  8
DTM_AXIS
100
AcDbCircle
 62
7
  6
CONTINUOUS
 10
190.8381882338
 20
122.3028365589
 40
0.4999052936
100
AcDbArc
 50
358.8650832673
 51
88.8618999123
  0
ARC
  5
32E
100
AcDbEntity
 67
1
  8
DTM_AXIS
100
AcDbCircle
 62
7
  6
CONTINUOUS
 10
187.1691950992
 20
126.3755749584
 40
0.4998720235
100
AcDbArc
 50
91.2150054472
 51
178.8928790264
  0
ARC
  5
32F
100
AcDbEntity
 67
1
  8
DTM_AXIS
100
AcDbCircle
 62
7
  6
CONTINUOUS
 10
186.0585467855
 20
82.3889289012
 40
0.4998720235
100
AcDbArc
 50
91.2150054477
 51
178.8928790266
  0
ARC
  5
330
100
AcDbEntity
 67
1
  8
DTM_AXIS
100
AcDbCircle
 62
7
  6
CONTINUOUS
 10
192.50208001
 20
77.2370278724
 40
0.3511777387
100
AcDbArc
 50
253.9020855831
 51
268.8446085515
  0
ARC
  5
331
100
AcDbEntity
 67
1
  8
DTM_AXIS
100
AcDbCircle
 62
7
  6
CONTINUOUS
 10
187.5573609075
 20
166.649980098
 40
0.3499214696
100
AcDbArc
 50
91.2158304242
 51
178.8918215988
  0
ARC
  5
332
100
AcDbEntity
 67
1
  8
DTM_AXIS
100
AcDbCircle
 62
7
  6
CONTINUOUS
 10
224.2796644937
 20
147.9853091295
 40
0.2499777766
100
AcDbArc
 50
178.8690996806
 51
259.2664303718
  0
ARC
  5
333
100
AcDbEntity
 67
1
  8
DTM_AXIS
100
AcDbCircle
 62
7
  6
CONTINUOUS
 10
193.5776495137
 20
147.3361868589
 40
0.2499777766
100
AcDbArc
 50
178.8690996806
 51
259.2664303718
  0
ARC
  5
334
100
AcDbEntity
 67
1
  8
DTM_AXIS
100
AcDbCircle
 62
7
  6
CONTINUOUS
 10
222.6011390505
 20
151.6130481624
 40
0.2499766265
100
AcDbArc
 50
106.1509381961
 51
178.8872491112
  0
ARC
  5
335
100
AcDbEntity
 67
1
  8
DTM_AXIS
100
AcDbCircle
 62
7
  6
CONTINUOUS
 10
191.8991240705
 20
150.9639258917
 40
0.2499766265
100
AcDbArc
 50
106.1509381961
 51
178.8872491113
  0
ARC
  5
336
100
AcDbEntity
 67
1
  8
DTM_AXIS
100
AcDbCircle
 62
7
  6
CONTINUOUS
 10
223.8073246304
 20
149.4004950187
 40
0.24995427
100
AcDbArc
 50
358.8654216888
 51
88.861561485
  0
ARC
  5
337
100
AcDbEntity
 67
1
  8
DTM_AXIS
100
AcDbCircle
 62
7
  6
CONTINUOUS
 10
222.5680853736
 20
149.9247881129
 40
0.24995427
100
AcDbArc
 50
178.8654216888
 51
268.8615614851
  0
ARC
  5
338
100
AcDbEntity
 67
1
  8
DTM_AXIS
100
AcDbCircle
 62
7
  6
CONTINUOUS
 10
193.1053096504
 20
148.7513727481
 40
0.24995427
100
AcDbArc
 50
358.8654216888
 51
88.8615614851
  0
ARC
  5
339
100
AcDbEntity
 67
1
  8
DTM_AXIS
100
AcDbCircle
 62
7
  6
CONTINUOUS
 10
191.8660703936
 20
149.2756658423
 40
0.24995427
100
AcDbArc
 50
178.8654216888
 51
268.8615614851
  0
ARC
  5
33A
100
AcDbEntity
 67
1
  8
DTM_AXIS
100
AcDbCircle
 62
7
  6
CONTINUOUS
 10
221.1619081963
 20
167.3421729285
 40
0.2499532828
100
AcDbArc
 50
359.2688433863
 51
88.8617031525
  0
ARC
  5
33B
100
AcDbEntity
 67
1
  8
DTM_AXIS
100
AcDbCircle
 62
7
  6
CONTINUOUS
 10
190.4598932163
 20
166.6930506578
 40
0.2499532828
100
AcDbArc
 50
359.2688433863
 51
88.8617031525
  0
ARC
  5
33C
100
AcDbEntity
 67
1
  8
DTM_AXIS
100
AcDbCircle
 62
7
  6
CONTINUOUS
 10
224.9046384725
 20
77.7515418564
 40
0.2499356123
100
AcDbArc
 50
271.2249335772
 51
358.8928218486
  0
ARC
  5
33D
100
AcDbEntity
 67
1
  8
DTM_AXIS
100
AcDbCircle
 62
7
  6
CONTINUOUS
 10
194.2026234925
 20
77.1024195858
 40
0.2499356123
100
AcDbArc
 50
271.2249335773
 51
358.8928218486
  0
SPLINE
  5
33E
100
AcDbEntity
 67
1
  8
DTM_AXIS
100
AcDbSpline
 62
7
  6
CONTINUOUS
 70
0
 71
3
 72
15
 73
11
 74
0
 42
0.0000001
 43
0.0000001
 44
0.0000000001
 40
0.0
 40
0.0
 40
0.0
 40
0.0
 40
0.069438426
 40
0.1909594613
 40
0.3609463566
 40
0.5029205812
 40
0.6025123917
 40
0.7259662971
 40
0.8917011798
 40
1.0
 40
1.0
 40
1.0
 40
1.0
 10
62.6780582689
 20
158.1691022954
 30
0.0
 10
63.4809192144
 20
158.4184896946
 30
0.0
 10
65.7546566367
 20
159.3303738039
 30
0.0
 10
69.406950781
 20
162.2113661331
 30
0.0
 10
70.4116725998
 20
168.2906542444
 30
0.0
 10
67.2958186311
 20
172.7669054393
 30
0.0
 10
63.3690956211
 20
175.1306403021
 30
0.0
 10
60.6945883636
 20
179.3849018845
 30
0.0
 10
59.7792501069
 20
184.3229450817
 30
0.0
 10
59.8411482586
 20
187.7498083551
 30
0.0
 10
59.8317018273
 20
189.0909247234
 30
0.0
  0
SPLINE
  5
33F
100
AcDbEntity
 67
1
  8
DTM_AXIS
100
AcDbSpline
 62
7
  6
CONTINUOUS
 70
0
 71
3
 72
31
 73
27
 74
0
 42
0.0000001
 43
0.0000001
 44
0.0000000001
 40
0.0
 40
0.0
 40
0.0
 40
0.0
 40
0.0621866793
 40
0.1250948366
 40
0.1871067849
 40
0.2500050576
 40
0.2819988338
 40
0.3140277985
 40
0.3458824154
 40
0.3774361008
 40
0.4400791797
 40
0.4715413549
 40
0.5029234346
 40
0.5340828515
 40
0.5650897984
 40
0.5959136913
 40
0.6113069646
 40
0.6267474627
 40
0.6578061125
 40
0.6890932699
 40
0.7516430284
 40
0.8137918964
 40
0.8759601615
 40
0.9070521836
 40
0.9381101085
 40
1.0
 40
1.0
 40
1.0
 40
1.0
 10
222.5316033738
 20
151.853158769
 30
0.0
 10
222.9067221301
 20
151.9617195359
 30
0.0
 10
223.6460182234
 20
152.2383558167
 30
0.0
 10
224.6641259184
 20
152.8406131376
 30
0.0
 10
225.5104071196
 20
153.6882127243
 30
0.0
 10
225.9447798623
 20
154.5934528506
 30
0.0
 10
226.1274472838
 20
155.371108694
 30
0.0
 10
226.1804146461
 20
155.9730867266
 30
0.0
 10
226.1453510901
 20
156.5737188819
 30
0.0
 10
225.9750617547
 20
157.349859899
 30
0.0
 10
225.6231875167
 20
158.0706963981
 30
0.0
 10
225.1478158201
 20
158.7004600838
 30
0.0
 10
224.7385332731
 20
159.1280905781
 30
0.0
 10
224.2859066786
 20
159.5036512967
 30
0.0
 10
223.8206932173
 20
159.8562833286
 30
0.0
 10
223.443884467
 20
160.1624349525
 30
0.0
 10
223.1652395443
 20
160.4317001788
 30
0.0
 10
222.9043527918
 20
160.7201095149
 30
0.0
 10
222.6102173437
 20
161.1115950624
 30
0.0
 10
222.2081586846
 20
161.7863007024
 30
0.0
 10
221.826276618
 20
162.6940902506
 30
0.0
 10
221.5419189377
 20
163.8362493459
 30
0.0
 10
221.4272443003
 20
164.8076533925
 30
0.0
 10
221.3940350888
 20
165.5877902947
 30
0.0
 10
221.3912453979
 20
166.3668553519
 30
0.0
 10
221.4069774892
 20
166.95036563
 30
0.0
 10
221.4118451568
 20
167.3389832872
 30
0.0
  0
SPLINE
  5
340
100
AcDbEntity
 67
1
  8
DTM_AXIS
100
AcDbSpline
 62
7
  6
CONTINUOUS
 70
0
 71
3
 72
8
 73
4
 74
0
 42
0.0000001
 43
0.0000001
 44
0.0000000001
 40
0.0
 40
0.0
 40
0.0
 40
0.0
 40
1.0
 40
1.0
 40
1.0
 40
1.0
 10
187.189330719
 20
165.7282174051
 30
0.0
 10
187.1880975006
 20
165.6651942889
 30
0.0
 10
187.1991844206
 20
165.6008342964
 30
0.0
 10
187.2214357318
 20
165.5418570707
 30
0.0
  0
SPLINE
  5
341
100
AcDbEntity
 67
1
  8
DTM_AXIS
100
AcDbSpline
 62
7
  6
CONTINUOUS
 70
0
 71
3
 72
8
 73
4
 74
0
 42
0.0000001
 43
0.0000001
 44
0.0000000001
 40
0.0
 40
0.0
 40
0.0
 40
0.0
 40
1.0
 40
1.0
 40
1.0
 40
1.0
 10
187.2004789846
 20
164.4708711989
 30
0.0
 10
187.1759372264
 20
164.4128106882
 30
0.0
 10
187.162341302
 20
164.348934447
 30
0.0
 10
187.1611081012
 20
164.2859122287
 30
0.0
  0
SPLINE
  5
342
100
AcDbEntity
 67
1
  8
DTM_AXIS
100
AcDbSpline
 62
7
  6
CONTINUOUS
 70
0
 71
3
 72
8
 73
4
 74
0
 42
0.0000001
 43
0.0000001
 44
0.0000000001
 40
0.0
 40
0.0
 40
0.0
 40
0.0
 40
1.0
 40
1.0
 40
1.0
 40
1.0
 10
185.5435255744
 20
81.6200282822
 30
0.0
 10
185.542292356
 20
81.5570051659
 30
0.0
 10
185.553379276
 20
81.4926451735
 30
0.0
 10
185.5756305872
 20
81.4336679477
 30
0.0
  0
SPLINE
  5
343
100
AcDbEntity
 67
1
  8
DTM_AXIS
100
AcDbSpline
 62
7
  6
CONTINUOUS
 70
0
 71
3
 72
8
 73
4
 74
0
 42
0.0000001
 43
0.0000001
 44
0.0000000001
 40
0.0
 40
0.0
 40
0.0
 40
0.0
 40
1.0
 40
1.0
 40
1.0
 40
1.0
 10
185.55467384
 20
80.3626820759
 30
0.0
 10
185.5301320818
 20
80.3046215653
 30
0.0
 10
185.5165361574
 20
80.2407453241
 30
0.0
 10
185.5153029566
 20
80.1777231057
 30
0.0
  0
SPLINE
  5
344
100
AcDbEntity
 67
1
  8
DTM_AXIS
100
AcDbSpline
 62
7
  6
CONTINUOUS
 70
0
 71
3
 72
31
 73
27
 74
0
 42
0.0000001
 43
0.0000001
 44
0.0000000001
 40
0.0
 40
0.0
 40
0.0
 40
0.0
 40
0.0621866793
 40
0.1250948366
 40
0.1871067849
 40
0.2500050576
 40
0.2819988338
 40
0.3140277985
 40
0.3458824154
 40
0.3774361008
 40
0.4400791797
 40
0.4715413549
 40
0.5029234346
 40
0.5340828515
 40
0.5650897984
 40
0.5959136913
 40
0.6113069646
 40
0.6267474627
 40
0.6578061125
 40
0.6890932699
 40
0.7516430284
 40
0.8137918964
 40
0.8759601615
 40
0.9070521836
 40
0.9381101085
 40
1.0
 40
1.0
 40
1.0
 40
1.0
 10
191.8295883938
 20
151.2040364984
 30
0.0
 10
192.2047071501
 20
151.3125972653
 30
0.0
 10
192.9440032434
 20
151.5892335461
 30
0.0
 10
193.9621109384
 20
152.191490867
 30
0.0
 10
194.8083921396
 20
153.0390904537
 30
0.0
 10
195.2427648823
 20
153.94433058
 30
0.0
 10
195.4254323038
 20
154.7219864234
 30
0.0
 10
195.4783996661
 20
155.323964456
 30
0.0
 10
195.4433361101
 20
155.9245966113
 30
0.0
 10
195.2730467747
 20
156.7007376284
 30
0.0
 10
194.9211725367
 20
157.4215741275
 30
0.0
 10
194.4458008401
 20
158.0513378131
 30
0.0
 10
194.0365182931
 20
158.4789683074
 30
0.0
 10
193.5838916986
 20
158.8545290261
 30
0.0
 10
193.1186782373
 20
159.207161058
 30
0.0
 10
192.741869487
 20
159.5133126819
 30
0.0
 10
192.4632245643
 20
159.7825779082
 30
0.0
 10
192.2023378118
 20
160.0709872443
 30
0.0
 10
191.9082023637
 20
160.4624727918
 30
0.0
 10
191.5061437046
 20
161.1371784318
 30
0.0
 10
191.124261638
 20
162.04496798
 30
0.0
 10
190.8399039577
 20
163.1871270752
 30
0.0
 10
190.7252293203
 20
164.1585311219
 30
0.0
 10
190.6920201088
 20
164.9386680241
 30
0.0
 10
190.6892304179
 20
165.7177330813
 30
0.0
 10
190.7049625092
 20
166.3012433594
 30
0.0
 10
190.7098301768
 20
166.6898610166
 30
0.0
  0
ENDSEC
  0
SECTION
  2
OBJECTS
  0
DICTIONARY
  5
C
100
AcDbDictionary
280
0
281
1
  3
ACAD_GROUP
350
D
  3
ACAD_MLINESTYLE
350
17
  3
ACAD_LAYOUT
350
1A
  3
ACAD_PLOTSETTINGS
350
19
  3
ACAD_PLOTSTYLENAME
350
E
  3
ACAD_TABLESTYLE
350
       345
  0
DICTIONARY
  5
D
102
{ACAD_REACTORS
330
C
102
}
100
AcDbDictionary
280
0
281
1
  0
ACDBDICTIONARYWDFLT
  5
E
102
{ACAD_REACTORS
330
C
102
}
100
AcDbDictionary
281
1
  3
Normal
350
F
100
AcDbDictionaryWithDefault
340
F
  0
DICTIONARY
  5
17
102
{ACAD_REACTORS
330
C
102
}
100
AcDbDictionary
280
0
281
1
  3
Standard
350
18
  0
DICTIONARY
  5
345
330
C
100
AcDbDictionary
281
1
  3
Standard
350
       348
  3
Standard1
350
       349
  0
DICTIONARY
  5
19
102
{ACAD_REACTORS
330
C
102
}
100
AcDbDictionary
281
1
  0
DICTIONARY
  5
1A
102
{ACAD_REACTORS
330
C
102
}
100
AcDbDictionary
281
1
  3
Model
350
346
  3
SX206-PROD-MM-INCHES_1
350
347
  0
ACDBPLACEHOLDER
  5
F
102
{ACAD_REACTORS
330
E
102
}
  0
MLINESTYLE
  5
18
102
{ACAD_REACTORS
330
17
102
}
100
AcDbMlineStyle
  2
STANDARD
 70
0
  3

 62
256
 51
90.0
 52
90.0
 71
2
 49
0.5
 62
256
  6
BYLAYER
 49
-0.5
 62
256
  6
BYLAYER
  0
LAYOUT
  5
346
102
{ACAD_REACTORS
330
1A
102
}
100
AcDbPlotSettings
  1

  2
none_device
  4

  6

 40
0.0
 41
0.0
 42
0.0
 43
0.0
 44
297.0
 45
210.0
 46
0.0
 47
0.0
 48
0.0
 49
0.0
140
0.0
141
0.0
142
1.0
143
1.0
 70
1024
 72
1
 73
0
 74
0
  7

 75
0
147
1.0
148
0.0
149
0.0
100
AcDbLayout
  1
Model
 70
0
 71
0
 10
0.0
 20
0.0
 11
297.0
 21
210.0
 12
0.0
 22
0.0
 32
0.0
 14
0.0
 24
0.0
 34
0.0
 15
0.0
 25
0.0
 35
0.0
146
0.0
 13
0.0
 23
0.0
 33
0.0
 16
1.0
 26
0.0
 36
0.0
 17
0.0
 27
1.0
 37
0.0
 76
0
330
209
345
0
346
0
  0
LAYOUT
  5
347
102
{ACAD_REACTORS
330
1A
102
}
100
AcDbPlotSettings
  1

  2
none_device
  4
ISO_A4_(297.00_x_210.00_MM)
  6

 40
0.0
 41
0.0
 42
0.0
 43
0.0
 44
297.0
 45
210.0
 46
0.0
 47
0.0
 48
0.0
 49
0.0
140
0.0
141
0.0
142
1.0
143
1.0
 70
0
 72
1
 73
0
 74
0
  7

 75
0
147
1.0
148
0.0
149
0.0
100
AcDbLayout
  1
SX206-PROD-MM-INCHES_1
 70
0
 71
1
 10
0.0
 20
0.0
 11
297.0
 21
210.0
 12
0.0
 22
0.0
 32
0.0
 14
0.0
 24
0.0
 34
0.0
 15
0.0
 25
0.0
 35
0.0
146
0.0
 13
0.0
 23
0.0
 33
0.0
 16
1.0
 26
0.0
 36
0.0
 17
0.0
 27
1.0
 37
0.0
 76
0
330
20A
331
2A3
345
0
346
0
  0
TABLESTYLE
  5
348
102
{ACAD_REACTORS
330
345
330
2AD
102
}
330
345
100
AcDbTableStyle
  3
Standard
 70
0
 71
0
 40
0.06
 41
0.06
280
1
281
1
  7
Standard
140
0.18
170
1
 62
0
 63
7
283
0
  7
Standard
140
0.18
170
1
 62
0
 63
7
283
0
  7
Standard
140
0.18
170
1
 62
0
 63
7
283
0
  0
TABLESTYLE
  5
349
102
{ACAD_REACTORS
330
345
102
}
330
345
100
AcDbTableStyle
  3
Standard1
 70
1
 71
0
 40
0.06
 41
0.06
280
1
281
1
  7
Standard
140
0.18
170
1
 62
0
 63
7
283
0
  7
Standard
140
0.18
170
1
 62
0
 63
7
283
0
  7
Standard
140
0.18
170
1
 62
0
 63
7
283
0
  0
ENDSEC
  0
EOF
