999
DXF file: O:\ORAC_PRODUCTEN\ORAC_COEX\SX\195\sx195-prod-mm-inches.dxf
999
Pro/ENGINEER 2021404 by Parametric Technology Corporation
  0
SECTION
  2
HEADER
  9
$ACADVER
  1
AC1024
  9
$DWGCODEPAGE
  3
ANSI_1252
  9
$EXTMAX
 10
297.0
 20
210.0
 30
0.0
  9
$EXTMIN
 10
0.0
 20
0.0
 30
0.0
  9
$LIMMIN
 10
0.0
 20
0.0
  9
$LIMMAX
 10
297.0
 20
210.0
  9
$VIEWCTR
 10
148.5
 20
105.0
  9
$VIEWSIZE
 40
210.0
  9
$CLAYER
  8
0
  9
$LTSCALE
 40
16.335
  9
$CELTYPE
  6
BYLAYER
  9
$DIMSCALE
 40
1.0
  9
$DIMASZ
 40
3.5
  9
$DIMEXO
 40
1.0
  9
$DIMDLI
 40
11.286
  9
$DIMEXE
 40
1.5
  9
$DIMCEN
 40
2.673
  9
$DIMLFAC
 40
1.0
  9
$DIMBLK
  1
_FILLED
  9
$DIMALT
 70
0
  9
$DIMALTF
 40
0.0393700787
  9
$DIMTXT
 40
2.5
  9
$DIMTOL
 70
1
  9
$DIMLIM
 70
0
  9
$DIMTFAC
 40
1.0
  9
$DIMTP
 40
0.001
  9
$DIMTM
 40
0.001
  9
$DIMGAP
 40
0.625
  9
$DIMDSEP
 70
44
  9
$AUNITS
 70
0
  9
$PDMODE
 70
3
  9
$PDSIZE
 40
8.0
  9
$HANDSEED
  5
386
  9
$TILEMODE
 70
0
  9
$MEASUREMENT
 70
1
  9
$INSUNITS
 70
4
  0
ENDSEC
  0
SECTION
  2
CLASSES
  0
CLASS
  1
ACDBDICTIONARYWDFLT
  2
AcDbDictionaryWithDefault
  3
AutoCAD 2000
 90
0
 91
1
280
0
281
0
  0
CLASS
  1
ACDBPLACEHOLDER
  2
AcDbPlaceHolder
  3
AutoCAD 2000
 90
0
 91
1
280
0
281
0
  0
CLASS
  1
LAYOUT
  2
AcDbLayout
  3
AutoCAD 2000
 90
0
 91
0
280
0
281
0
  0
CLASS
  1
TABLESTYLE
  2
AcDbTableStyle
  3
ObjectDBX Classes
 90
2047
 91
1
280
0
281
0
  0
CLASS
  1
ACAD_TABLE
  2
AcDbTable
  3
ObjectDBX Classes
 90
1025
 91
1
280
0
281
1
  0
ENDSEC
  0
SECTION
  2
TABLES
  0
TABLE
  2
VPORT
  5
8
100
AcDbSymbolTable
 70
2
  0
VPORT
  5
1F4
100
AcDbSymbolTableRecord
100
AcDbViewportTableRecord
  2
*ACTIVE
 70
0
 10
0.0
 20
0.0
 11
1.0
 21
1.0
 12
148.5
 22
105.0
 13
0.0
 23
0.0
 14
1.0
 24
1.0
 15
0.0
 25
0.0
 16
0.0
 26
0.0
 36
1.0
 17
0.0
 27
0.0
 37
0.0
 40
210.0
 41
1.4142857143
 42
50.0
 43
0.0
 44
0.0
 50
0.0
 51
0.0
 71
0
 72
100
 73
1
 74
1
 75
0
 76
0
 77
0
 78
0
  0
ENDTAB
  0
TABLE
  2
LTYPE
  5
5
100
AcDbSymbolTable
 70
6
  0
LTYPE
  5
14
100
AcDbSymbolTableRecord
100
AcDbLinetypeTableRecord
  2
BYBLOCK
 70
0
  3

 72
65
 73
0
 40
0.0
  0
LTYPE
  5
15
100
AcDbSymbolTableRecord
100
AcDbLinetypeTableRecord
  2
BYLAYER
 70
0
  3

 72
65
 73
0
 40
0.0
  0
LTYPE
  5
16
100
AcDbSymbolTableRecord
100
AcDbLinetypeTableRecord
  2
CONTINUOUS
 70
64
  3
Solid line
 72
65
 73
0
 40
0.0
  0
LTYPE
  5
1F5
100
AcDbSymbolTableRecord
100
AcDbLinetypeTableRecord
  2
CENTER
 70
64
  3
____ _ ____ _ ____ _ ____ _ ____ _ ____ _ ____
 72
65
 73
4
 40
0.6
 49
0.375
 74
0
 49
-0.075
 74
0
 49
0.075
 74
0
 49
-0.075
 74
0
  0
LTYPE
  5
1F6
100
AcDbSymbolTableRecord
100
AcDbLinetypeTableRecord
  2
HIDDEN
 70
64
  3
- - - - - - - - - - - - - - - - - - - -
 72
65
 73
2
 40
0.2
 49
0.1
 74
0
 49
-0.1
 74
0
  0
LTYPE
  5
1F7
100
AcDbSymbolTableRecord
100
AcDbLinetypeTableRecord
  2
PHANTOM
 70
64
  3
_____ _ _ _____ _ _ _____ _ _ _____
 72
65
 73
6
 40
0.8
 49
0.45
 74
0
 49
-0.05
 74
0
 49
0.1
 74
0
 49
-0.05
 74
0
 49
0.1
 74
0
 49
-0.05
 74
0
  0
LTYPE
  5
1F8
100
AcDbSymbolTableRecord
100
AcDbLinetypeTableRecord
  2
DOT
 70
64
  3
. . . . . . . . . . . . . . . . . . . .
 72
65
 73
2
 40
0.2
 49
0.1
 74
0
 49
-0.1
 74
0
  0
LTYPE
  5
1F9
100
AcDbSymbolTableRecord
100
AcDbLinetypeTableRecord
  2
DASHED
 70
64
  3
- - - - - - - - - - - - - - - - - - - -
 72
65
 73
2
 40
0.2
 49
0.1
 74
0
 49
-0.1
 74
0
  0
ENDTAB
  0
TABLE
  2
LAYER
  5
2
100
AcDbSymbolTable
 70
36
  0
LAYER
  5
10
100
AcDbSymbolTableRecord
100
AcDbLayerTableRecord
  2
0
 70
0
 62
7
  6
CONTINUOUS
370
-3
390
F
  0
LAYER
  5
1FA
100
AcDbSymbolTableRecord
100
AcDbLayerTableRecord
  2
DEFAULT_1
 70
0
 62
7
  6
CENTER
370
-3
390
F
  0
LAYER
  5
1FB
100
AcDbSymbolTableRecord
100
AcDbLayerTableRecord
  2
DEFAULT_2
 70
0
 62
8
  6
HIDDEN
370
-3
390
F
  0
LAYER
  5
1FC
100
AcDbSymbolTableRecord
100
AcDbLayerTableRecord
  2
DEFAULT_3
 70
0
 62
7
  6
PHANTOM
370
-3
390
F
  0
LAYER
  5
1FD
100
AcDbSymbolTableRecord
100
AcDbLayerTableRecord
  2
DTM_ALL
 70
0
 62
7
  6
CONTINUOUS
370
-3
390
F
  0
LAYER
  5
1FE
100
AcDbSymbolTableRecord
100
AcDbLayerTableRecord
  2
DTM_AXIS
 70
0
 62
7
  6
CONTINUOUS
370
-3
390
F
  0
LAYER
  5
1FF
100
AcDbSymbolTableRecord
100
AcDbLayerTableRecord
  2
DTM_CSYS
 70
0
 62
7
  6
CONTINUOUS
370
-3
390
F
  0
LAYER
  5
200
100
AcDbSymbolTableRecord
100
AcDbLayerTableRecord
  2
DTM_CURVE
 70
0
 62
7
  6
CONTINUOUS
370
-3
390
F
  0
LAYER
  5
201
100
AcDbSymbolTableRecord
100
AcDbLayerTableRecord
  2
DTM_MASTER
 70
0
 62
7
  6
CONTINUOUS
370
-3
390
F
  0
LAYER
  5
202
100
AcDbSymbolTableRecord
100
AcDbLayerTableRecord
  2
DTM_POINT
 70
0
 62
7
  6
CONTINUOUS
370
-3
390
F
  0
LAYER
  5
203
100
AcDbSymbolTableRecord
100
AcDbLayerTableRecord
  2
DTM_QUILT
 70
0
 62
7
  6
CONTINUOUS
370
-3
390
F
  0
LAYER
  5
204
100
AcDbSymbolTableRecord
100
AcDbLayerTableRecord
  2
GTOL
 70
0
 62
7
  6
CONTINUOUS
370
-3
390
F
  0
LAYER
  5
205
100
AcDbSymbolTableRecord
100
AcDbLayerTableRecord
  2
NOTES
 70
0
 62
7
  6
CONTINUOUS
370
-3
390
F
  0
ENDTAB
  0
TABLE
  2
STYLE
  5
3
100
AcDbSymbolTable
 70
1
  0
STYLE
  5
11
100
AcDbSymbolTableRecord
100
AcDbTextStyleTableRecord
  2
STANDARD
 70
0
 40
0.0
 41
1.0
 50
0.0
 71
0
 42
0.2
  3
cgtime.ttf
  4

1001
ACAD
1000
CG Times
1071
34
  0
STYLE
  5
206
100
AcDbSymbolTableRecord
100
AcDbTextStyleTableRecord
  2
TEXTSTYLE_1
 70
0
 40
0.0
 41
0.8
 50
0.0
 71
0
 42
0.2
  3
gdt
  4

  0
STYLE
  5
207
100
AcDbSymbolTableRecord
100
AcDbTextStyleTableRecord
  2
TEXTSTYLE_2
 70
0
 40
0.0
 41
1.0
 50
0.0
 71
0
 42
0.2
  3
trium.ttf
  4

1001
ACAD
1000
CG Triumvirate
1071
34
  0
ENDTAB
  0
TABLE
  2
VIEW
  5
6
100
AcDbSymbolTable
 70
0
  0
ENDTAB
  0
TABLE
  2
UCS
  5
7
100
AcDbSymbolTable
 70
0
  0
ENDTAB
  0
TABLE
  2
APPID
  5
9
100
AcDbSymbolTable
 70
1
  0
APPID
  5
208
100
AcDbSymbolTableRecord
100
AcDbRegAppTableRecord
  2
ACAD
 70
0
  0
ENDTAB
  0
TABLE
  2
BLOCK_RECORD
  5
1
100
AcDbSymbolTable
 70
0
  0
BLOCK_RECORD
  5
209
100
AcDbSymbolTableRecord
100
AcDbBlockTableRecord
  2
*Model_Space
  0
BLOCK_RECORD
  5
20A
100
AcDbSymbolTableRecord
100
AcDbBlockTableRecord
  2
*Paper_Space
  0
BLOCK_RECORD
  5
20B
100
AcDbSymbolTableRecord
100
AcDbBlockTableRecord
  2
_FILLED
  0
BLOCK_RECORD
  5
20C
100
AcDbSymbolTableRecord
100
AcDbBlockTableRecord
  2
*D0
  0
BLOCK_RECORD
  5
20D
100
AcDbSymbolTableRecord
100
AcDbBlockTableRecord
  2
*D1
  0
BLOCK_RECORD
  5
20E
100
AcDbSymbolTableRecord
100
AcDbBlockTableRecord
  2
*D2
  0
BLOCK_RECORD
  5
20F
100
AcDbSymbolTableRecord
100
AcDbBlockTableRecord
  2
*D3
  0
BLOCK_RECORD
  5
210
100
AcDbSymbolTableRecord
100
AcDbBlockTableRecord
  2
*D4
  0
BLOCK_RECORD
  5
211
100
AcDbSymbolTableRecord
100
AcDbBlockTableRecord
  2
*D5
  0
BLOCK_RECORD
  5
212
100
AcDbSymbolTableRecord
100
AcDbBlockTableRecord
  2
*D6
  0
BLOCK_RECORD
  5
213
100
AcDbSymbolTableRecord
100
AcDbBlockTableRecord
  2
*D7
  0
BLOCK_RECORD
  5
214
100
AcDbSymbolTableRecord
100
AcDbBlockTableRecord
  2
*D8
  0
BLOCK_RECORD
  5
215
100
AcDbSymbolTableRecord
100
AcDbBlockTableRecord
  2
*D9
  0
BLOCK_RECORD
  5
216
100
AcDbSymbolTableRecord
100
AcDbBlockTableRecord
  2
*D10
  0
BLOCK_RECORD
  5
217
100
AcDbSymbolTableRecord
100
AcDbBlockTableRecord
  2
*D11
  0
BLOCK_RECORD
  5
218
100
AcDbSymbolTableRecord
100
AcDbBlockTableRecord
  2
*D12
  0
BLOCK_RECORD
  5
219
100
AcDbSymbolTableRecord
100
AcDbBlockTableRecord
  2
*T1
  0
ENDTAB
  0
TABLE
  2
DIMSTYLE
  5
A
100
AcDbSymbolTable
 70
1
100
AcDbDimStyleTable
 71
0
  0
DIMSTYLE
105
21A
100
AcDbSymbolTableRecord
100
AcDbDimStyleTableRecord
  2
STANDARD
 70
0
  3

  4

 40
1.0
 41
3.5
 42
1.0
 43
0.38
 44
1.5
 45
0.0
 46
0.0
 47
0.001
 48
0.001
140
2.5
141
0.09
142
0.0
143
25.4
144
1.0
145
0.0
146
1.0
147
0.625
 71
1
 72
0
 73
1
 74
1
 75
0
 76
0
 77
0
 78
8
 79
2
170
0
171
2
172
0
173
0
174
0
175
0
176
0
177
0
178
0
270
2
179
3
271
3
272
3
273
2
274
2
275
0
280
0
281
0
282
0
283
1
284
8
285
0
286
0
287
3
288
0
340
11
278
44
341
20B
342
20B
343
20B
344
20B
  0
DIMSTYLE
105
21B
100
AcDbSymbolTableRecord
100
AcDbDimStyleTableRecord
  2
DIMSTYLE_1
 70
0
  3

  4

 40
1.0
 41
3.5
 42
1.0
 43
0.38
 44
1.5
 45
0.0
 46
0.0
 47
0.0
 48
0.0
140
2.5
141
0.09
142
0.0
143
25.4
144
1.0
145
0.0
146
1.0
147
1.25
 71
0
 72
0
 73
1
 74
1
 75
0
 76
0
 77
0
 78
8
 79
2
170
0
171
2
172
0
173
0
174
0
175
0
176
0
177
0
178
0
270
2
179
3
271
1
272
2
273
2
274
2
275
0
280
0
281
0
282
0
283
1
284
8
285
0
286
0
287
3
288
0
340
11
278
44
341
20B
342
20B
343
20B
344
20B
  0
DIMSTYLE
105
21C
100
AcDbSymbolTableRecord
100
AcDbDimStyleTableRecord
  2
DIMSTYLE_2
 70
0
  3

  4

 40
1.0
 41
3.5
 42
1.0
 43
0.38
 44
1.5
 45
0.0
 46
0.0
 47
0.0
 48
0.0
140
2.5
141
0.09
142
0.0
143
25.4
144
1.0
145
0.0
146
1.0
147
1.25
 71
0
 72
0
 73
1
 74
1
 75
0
 76
0
 77
0
 78
8
 79
2
170
0
171
2
172
0
173
0
174
0
175
0
176
0
177
0
178
0
270
2
179
3
271
3
272
8
273
2
274
2
275
0
280
0
281
0
282
0
283
1
284
8
285
0
286
0
287
3
288
0
340
11
278
44
341
20B
342
20B
343
20B
344
20B
  0
DIMSTYLE
105
21D
100
AcDbSymbolTableRecord
100
AcDbDimStyleTableRecord
  2
DIMSTYLE_3
 70
0
  3

  4

 40
1.0
 41
3.5
 42
1.0
 43
0.38
 44
1.5
 45
0.0
 46
0.0
 47
0.0
 48
0.0
140
2.5
141
0.09
142
0.0
143
25.4
144
1.0
145
0.0
146
1.0
147
1.25
 71
0
 72
0
 73
1
 74
1
 75
0
 76
0
 77
0
 78
8
 79
2
170
0
171
2
172
0
173
0
174
0
175
0
176
0
177
0
178
0
270
2
179
3
271
1
272
1
273
2
274
2
275
0
280
0
281
0
282
0
283
1
284
8
285
0
286
0
287
3
288
0
340
11
278
44
341
20B
342
20B
343
20B
344
20B
  0
DIMSTYLE
105
21E
100
AcDbSymbolTableRecord
100
AcDbDimStyleTableRecord
  2
DIMSTYLE_4
 70
0
  3

  4

 40
1.0
 41
3.5
 42
1.0
 43
0.38
 44
1.5
 45
0.0
 46
0.0
 47
0.0
 48
0.0
140
2.5
141
0.09
142
0.0
143
25.4
144
1.0
145
0.0
146
1.0
147
1.25
 71
0
 72
0
 73
1
 74
1
 75
0
 76
0
 77
0
 78
8
 79
2
170
0
171
2
172
0
173
0
174
0
175
0
176
0
177
0
178
0
270
2
179
3
271
0
272
0
273
2
274
2
275
0
280
0
281
0
282
0
283
1
284
8
285
0
286
0
287
3
288
0
340
11
278
44
341
20B
342
20B
343
20B
344
20B
  0
ENDTAB
  0
ENDSEC
  0
SECTION
  2
BLOCKS
  0
BLOCK
  5
20
100
AcDbEntity
  8
0
100
AcDbBlockBegin
  2
*Model_Space
 70
0
 10
0.0
 20
0.0
 30
0.0
  3
*Model_Space
  1

  0
ENDBLK
  5
21
100
AcDbEntity
  8
0
100
AcDbBlockEnd
  0
BLOCK
  5
1C
100
AcDbEntity
  8
0
100
AcDbBlockBegin
  2
*Paper_Space
 70
0
 10
0.0
 20
0.0
 30
0.0
  3
*Paper_Space
  1

  0
ENDBLK
  5
1D
100
AcDbEntity
  8
0
100
AcDbBlockEnd
  0
BLOCK
  5
21F
100
AcDbEntity
  8
0
100
AcDbBlockBegin
  2
_FILLED
 70
64
 10
0.0
 20
0.0
  3
_FILLED
  1

  0
SOLID
  5
220
100
AcDbEntity
  8
0
  6
BYBLOCK
 62
0
100
AcDbTrace
 10
0.0
 20
0.0
 11
-1.0
 21
0.2142857143
 12
-1.0
 22
-0.2142857143
 13
-1.0
 23
-0.2142857143
  0
ENDBLK
  5
221
100
AcDbEntity
  8
0
  6
BYBLOCK
 62
0
100
AcDbBlockEnd
  0
BLOCK
  5
222
100
AcDbEntity
  8
0
100
AcDbBlockBegin
 62
2
  6
CONTINUOUS
  2
*D0
 70
65
 10
0.0
 20
0.0
  3
*D0
  1

  0
TEXT
  5
223
100
AcDbEntity
  8
0
100
AcDbText
 62
2
  6
CONTINUOUS
 10
79.5205354971
 20
160.3692079719
  7
STANDARD
 40
2.5
  1
16
 72
5
 11
83.1586677928
 21
160.3692079719
100
AcDbText
  0
TEXT
  5
224
100
AcDbEntity
  8
0
100
AcDbText
 62
2
  6
CONTINUOUS
 10
83.1586677928
 20
160.3692079719
  7
STANDARD
 40
2.5
  1
 mm
 72
5
 11
89.9096405555
 21
160.3692079719
100
AcDbText
  0
TEXT
  5
225
100
AcDbEntity
  8
0
100
AcDbText
 62
2
  6
CONTINUOUS
 10
79.5205354971
 20
156.6192079719
  7
STANDARD
 40
2.5
  1
5/8"
 72
5
 11
86.0575004776
 21
156.6192079719
100
AcDbText
  0
LINE
  5
226
100
AcDbEntity
  8
0
100
AcDbLine
 62
2
  6
CONTINUOUS
 10
74.5205057971
 20
144.1862238198
 11
74.5205057971
 21
163.1192079719
  0
LINE
  5
227
100
AcDbEntity
  8
0
100
AcDbLine
 62
2
  6
CONTINUOUS
 10
58.6188361139
 20
139.8217824903
 11
58.6188361139
 21
163.1192079719
  0
LINE
  5
228
100
AcDbEntity
  8
0
100
AcDbLine
 62
2
  6
CONTINUOUS
 10
74.5205057971
 20
161.6192079719
 11
66.5696709555
 21
161.6192079719
  0
LINE
  5
229
100
AcDbEntity
  8
0
100
AcDbLine
 62
2
  6
CONTINUOUS
 10
66.5696709555
 20
161.6192079719
 11
78.2705354971
 21
161.6192079719
  0
LINE
  5
22A
100
AcDbEntity
  8
0
100
AcDbLine
 62
2
  6
CONTINUOUS
 10
58.6188361139
 20
161.6192079719
 11
66.5696709555
 21
161.6192079719
  0
INSERT
  5
22B
100
AcDbEntity
  8
0
100
AcDbBlockReference
 62
2
  6
CONTINUOUS
  2
_FILLED
 10
74.5205057971
 20
161.6192079719
 41
3.5
 42
3.5
 43
3.5
  0
INSERT
  5
22C
100
AcDbEntity
  8
0
100
AcDbBlockReference
 62
2
  6
CONTINUOUS
  2
_FILLED
 10
58.6188361139
 20
161.6192079719
 41
3.5
 42
3.5
 43
3.5
 50
180.0
  0
ENDBLK
  5
22D
100
AcDbEntity
  8
0
  6
BYBLOCK
 62
0
100
AcDbBlockEnd
  0
BLOCK
  5
22E
100
AcDbEntity
  8
0
100
AcDbBlockBegin
 62
2
  6
CONTINUOUS
  2
*D1
 70
65
 10
0.0
 20
0.0
  3
*D1
  1

  0
TEXT
  5
22F
100
AcDbEntity
  8
0
100
AcDbText
 62
2
  6
CONTINUOUS
 10
79.5205354971
 20
170.4952055679
  7
STANDARD
 40
2.5
  1
18
 72
5
 11
83.1586677928
 21
170.4952055679
100
AcDbText
  0
TEXT
  5
230
100
AcDbEntity
  8
0
100
AcDbText
 62
2
  6
CONTINUOUS
 10
83.1586677928
 20
170.4952055679
  7
STANDARD
 40
2.5
  1
 mm
 72
5
 11
89.9096405555
 21
170.4952055679
100
AcDbText
  0
TEXT
  5
231
100
AcDbEntity
  8
0
100
AcDbText
 62
2
  6
CONTINUOUS
 10
79.5205354971
 20
166.7452055679
  7
STANDARD
 40
2.5
  1
45/64"
 72
5
 11
89.6956327734
 21
166.7452055679
100
AcDbText
  0
LINE
  5
232
100
AcDbEntity
  8
0
100
AcDbLine
 62
2
  6
CONTINUOUS
 10
74.5205057971
 20
144.1862238198
 11
74.5205057971
 21
173.2452055679
  0
LINE
  5
233
100
AcDbEntity
  8
0
100
AcDbLine
 62
2
  6
CONTINUOUS
 10
56.5413240339
 20
126.713074639
 11
56.5413240339
 21
173.2452055679
  0
LINE
  5
234
100
AcDbEntity
  8
0
100
AcDbLine
 62
2
  6
CONTINUOUS
 10
74.5205057971
 20
171.7452055679
 11
65.5309149155
 21
171.7452055679
  0
LINE
  5
235
100
AcDbEntity
  8
0
100
AcDbLine
 62
2
  6
CONTINUOUS
 10
65.5309149155
 20
171.7452055679
 11
78.2705354971
 21
171.7452055679
  0
LINE
  5
236
100
AcDbEntity
  8
0
100
AcDbLine
 62
2
  6
CONTINUOUS
 10
56.5413240339
 20
171.7452055679
 11
65.5309149155
 21
171.7452055679
  0
INSERT
  5
237
100
AcDbEntity
  8
0
100
AcDbBlockReference
 62
2
  6
CONTINUOUS
  2
_FILLED
 10
74.5205057971
 20
171.7452055679
 41
3.5
 42
3.5
 43
3.5
  0
INSERT
  5
238
100
AcDbEntity
  8
0
100
AcDbBlockReference
 62
2
  6
CONTINUOUS
  2
_FILLED
 10
56.5413240339
 20
171.7452055679
 41
3.5
 42
3.5
 43
3.5
 50
180.0
  0
ENDBLK
  5
239
100
AcDbEntity
  8
0
  6
BYBLOCK
 62
0
100
AcDbBlockEnd
  0
BLOCK
  5
23A
100
AcDbEntity
  8
0
100
AcDbBlockBegin
 62
2
  6
CONTINUOUS
  2
*D2
 70
65
 10
0.0
 20
0.0
  3
*D2
  1

  0
TEXT
  5
23B
100
AcDbEntity
  8
0
100
AcDbText
 62
2
  6
CONTINUOUS
 10
59.8259532679
 20
55.5186427074
  7
STANDARD
 40
2.5
  1
19
 72
5
 11
63.4640855636
 21
55.5186427074
100
AcDbText
  0
TEXT
  5
23C
100
AcDbEntity
  8
0
100
AcDbText
 62
2
  6
CONTINUOUS
 10
63.4640855636
 20
55.5186427074
  7
STANDARD
 40
2.5
  1
 mm
 72
5
 11
70.2150583263
 21
55.5186427074
100
AcDbText
  0
TEXT
  5
23D
100
AcDbEntity
  8
0
100
AcDbText
 62
2
  6
CONTINUOUS
 10
61.7520233068
 20
51.7686427074
  7
STANDARD
 40
2.5
  1
3/4"
 72
5
 11
68.2889882874
 21
51.7686427074
100
AcDbText
  0
LINE
  5
23E
100
AcDbEntity
  8
0
100
AcDbLine
 62
2
  6
CONTINUOUS
 10
74.5205057971
 20
68.6007204387
 11
74.5205057971
 21
55.2686427074
  0
LINE
  5
23F
100
AcDbEntity
  8
0
100
AcDbLine
 62
2
  6
CONTINUOUS
 10
55.5205057971
 20
64.3141555643
 11
55.5205057971
 21
55.2686427074
  0
LINE
  5
240
100
AcDbEntity
  8
0
100
AcDbLine
 62
2
  6
CONTINUOUS
 10
74.5205057971
 20
56.7686427074
 11
79.5205057971
 21
56.7686427074
  0
LINE
  5
241
100
AcDbEntity
  8
0
100
AcDbLine
 62
2
  6
CONTINUOUS
 10
55.5205057971
 20
56.7686427074
 11
50.5205057971
 21
56.7686427074
  0
INSERT
  5
242
100
AcDbEntity
  8
0
100
AcDbBlockReference
 62
2
  6
CONTINUOUS
  2
_FILLED
 10
74.5205057971
 20
56.7686427074
 41
3.5
 42
3.5
 43
3.5
 50
180.0
  0
INSERT
  5
243
100
AcDbEntity
  8
0
100
AcDbBlockReference
 62
2
  6
CONTINUOUS
  2
_FILLED
 10
55.5205057971
 20
56.7686427074
 41
3.5
 42
3.5
 43
3.5
  0
ENDBLK
  5
244
100
AcDbEntity
  8
0
  6
BYBLOCK
 62
0
100
AcDbBlockEnd
  0
BLOCK
  5
245
100
AcDbEntity
  8
0
100
AcDbBlockBegin
 62
2
  6
CONTINUOUS
  2
*D3
 70
65
 10
0.0
 20
0.0
  3
*D3
  1

  0
TEXT
  5
246
100
AcDbEntity
  8
0
100
AcDbText
 62
2
  6
CONTINUOUS
 10
102.6957717931
 20
56.1670963603
  7
STANDARD
 40
2.5
  1
4,2
 72
5
 11
107.5498573963
 21
56.1670963603
100
AcDbText
  0
TEXT
  5
247
100
AcDbEntity
  8
0
100
AcDbText
 62
2
  6
CONTINUOUS
 10
107.5498573963
 20
56.1670963603
  7
STANDARD
 40
2.5
  1
 mm
 72
5
 11
114.3008301589
 21
56.1670963603
100
AcDbText
  0
TEXT
  5
248
100
AcDbEntity
  8
0
100
AcDbText
 62
2
  6
CONTINUOUS
 10
102.6957717931
 20
52.4170963603
  7
STANDARD
 40
2.5
  1
11-64"
 72
5
 11
112.8708690694
 21
52.4170963603
100
AcDbText
  0
LINE
  5
249
100
AcDbEntity
  8
0
100
AcDbLine
 62
2
  6
CONTINUOUS
 10
75.3138591374
 20
68.9919590097
 11
98.1957717931
 21
68.9919590097
  0
LINE
  5
24A
100
AcDbEntity
  8
0
100
AcDbLine
 62
2
  6
CONTINUOUS
 10
58.7244274229
 20
64.8141555643
 11
98.1957717931
 21
64.8141555643
  0
LINE
  5
24B
100
AcDbEntity
  8
0
100
AcDbLine
 62
2
  6
CONTINUOUS
 10
96.6957717931
 20
68.9919590097
 11
96.6957717931
 21
73.9919590097
  0
LINE
  5
24C
100
AcDbEntity
  8
0
100
AcDbLine
 62
2
  6
CONTINUOUS
 10
96.6957717931
 20
64.8141555643
 11
96.6957717931
 21
57.4170963603
  0
LINE
  5
24D
100
AcDbEntity
  8
0
100
AcDbLine
 62
2
  6
CONTINUOUS
 10
96.6957717931
 20
57.4170963603
 11
101.4457717931
 21
57.4170963603
  0
INSERT
  5
24E
100
AcDbEntity
  8
0
100
AcDbBlockReference
 62
2
  6
CONTINUOUS
  2
_FILLED
 10
96.6957717931
 20
68.9919590097
 41
3.5
 42
3.5
 43
3.5
 50
270.0
  0
INSERT
  5
24F
100
AcDbEntity
  8
0
100
AcDbBlockReference
 62
2
  6
CONTINUOUS
  2
_FILLED
 10
96.6957717931
 20
64.8141555643
 41
3.5
 42
3.5
 43
3.5
 50
90.0
  0
ENDBLK
  5
250
100
AcDbEntity
  8
0
  6
BYBLOCK
 62
0
100
AcDbBlockEnd
  0
BLOCK
  5
251
100
AcDbEntity
  8
0
100
AcDbBlockBegin
 62
2
  6
CONTINUOUS
  2
*D4
 70
65
 10
0.0
 20
0.0
  3
*D4
  1

  0
TEXT
  5
252
100
AcDbEntity
  8
0
100
AcDbText
 62
2
  6
CONTINUOUS
 10
91.5311786298
 20
92.3583569075
  7
STANDARD
 40
2.5
  1
27
 72
5
 11
95.1693109255
 21
92.3583569075
100
AcDbText
  0
TEXT
  5
253
100
AcDbEntity
  8
0
100
AcDbText
 62
2
  6
CONTINUOUS
 10
95.1693109255
 20
92.3583569075
  7
STANDARD
 40
2.5
  1
 mm
 72
5
 11
101.9202836882
 21
92.3583569075
100
AcDbText
  0
TEXT
  5
254
100
AcDbEntity
  8
0
100
AcDbText
 62
2
  6
CONTINUOUS
 10
91.0302058671
 20
88.6083569075
  7
STANDARD
 40
2.5
  1
1-1/16"
 72
5
 11
102.4212564508
 21
88.6083569075
100
AcDbText
  0
LINE
  5
255
100
AcDbEntity
  8
0
100
AcDbLine
 62
2
  6
CONTINUOUS
 10
69.7705057971
 20
103.8141555643
 11
98.225731159
 21
103.8141555643
  0
LINE
  5
256
100
AcDbEntity
  8
0
100
AcDbLine
 62
2
  6
CONTINUOUS
 10
70.0205057971
 20
76.8333934507
 11
98.225731159
 21
76.8333934507
  0
LINE
  5
257
100
AcDbEntity
  8
0
100
AcDbLine
 62
2
  6
CONTINUOUS
 10
96.725731159
 20
103.8141555643
 11
96.725731159
 21
96.1083569075
  0
LINE
  5
258
100
AcDbEntity
  8
0
100
AcDbLine
 62
2
  6
CONTINUOUS
 10
96.725731159
 20
76.8333934507
 11
96.725731159
 21
87.3583569075
  0
INSERT
  5
259
100
AcDbEntity
  8
0
100
AcDbBlockReference
 62
2
  6
CONTINUOUS
  2
_FILLED
 10
96.725731159
 20
103.8141555643
 41
3.5
 42
3.5
 43
3.5
 50
90.0
  0
INSERT
  5
25A
100
AcDbEntity
  8
0
100
AcDbBlockReference
 62
2
  6
CONTINUOUS
  2
_FILLED
 10
96.725731159
 20
76.8333934507
 41
3.5
 42
3.5
 43
3.5
 50
270.0
  0
ENDBLK
  5
25B
100
AcDbEntity
  8
0
  6
BYBLOCK
 62
0
100
AcDbBlockEnd
  0
BLOCK
  5
25C
100
AcDbEntity
  8
0
100
AcDbBlockBegin
 62
2
  6
CONTINUOUS
  2
*D5
 70
65
 10
0.0
 20
0.0
  3
*D5
  1

  0
TEXT
  5
25D
100
AcDbEntity
  8
0
100
AcDbText
 62
2
  6
CONTINUOUS
 10
108.165820759
 20
79.2225000672
  7
STANDARD
 40
2.5
  1
8
 72
5
 11
109.9848869068
 21
79.2225000672
100
AcDbText
  0
TEXT
  5
25E
100
AcDbEntity
  8
0
100
AcDbText
 62
2
  6
CONTINUOUS
 10
109.9848869068
 20
79.2225000672
  7
STANDARD
 40
2.5
  1
 mm
 72
5
 11
116.7358596695
 21
79.2225000672
100
AcDbText
  0
TEXT
  5
25F
100
AcDbEntity
  8
0
100
AcDbText
 62
2
  6
CONTINUOUS
 10
108.165820759
 20
75.4725000672
  7
STANDARD
 40
2.5
  1
1/4"
 72
5
 11
114.7027857395
 21
75.4725000672
100
AcDbText
  0
LINE
  5
260
100
AcDbEntity
  8
0
100
AcDbLine
 62
2
  6
CONTINUOUS
 10
70.0205057971
 20
76.8333934507
 11
103.665820759
 21
76.8333934507
  0
LINE
  5
261
100
AcDbEntity
  8
0
100
AcDbLine
 62
2
  6
CONTINUOUS
 10
75.3138591374
 20
68.9919590097
 11
103.665820759
 21
68.9919590097
  0
LINE
  5
262
100
AcDbEntity
  8
0
100
AcDbLine
 62
2
  6
CONTINUOUS
 10
102.165820759
 20
76.8333934507
 11
102.165820759
 21
80.4725000672
  0
LINE
  5
263
100
AcDbEntity
  8
0
100
AcDbLine
 62
2
  6
CONTINUOUS
 10
102.165820759
 20
80.4725000672
 11
106.915820759
 21
80.4725000672
  0
LINE
  5
264
100
AcDbEntity
  8
0
100
AcDbLine
 62
2
  6
CONTINUOUS
 10
102.165820759
 20
68.9919590097
 11
102.165820759
 21
63.9919590097
  0
INSERT
  5
265
100
AcDbEntity
  8
0
100
AcDbBlockReference
 62
2
  6
CONTINUOUS
  2
_FILLED
 10
102.165820759
 20
76.8333934507
 41
3.5
 42
3.5
 43
3.5
 50
270.0
  0
INSERT
  5
266
100
AcDbEntity
  8
0
100
AcDbBlockReference
 62
2
  6
CONTINUOUS
  2
_FILLED
 10
102.165820759
 20
68.9919590097
 41
3.5
 42
3.5
 43
3.5
 50
90.0
  0
ENDBLK
  5
267
100
AcDbEntity
  8
0
  6
BYBLOCK
 62
0
100
AcDbBlockEnd
  0
BLOCK
  5
268
100
AcDbEntity
  8
0
100
AcDbBlockBegin
 62
2
  6
CONTINUOUS
  2
*D6
 70
65
 10
0.0
 20
0.0
  3
*D6
  1

  0
TEXT
  5
269
100
AcDbEntity
  8
0
100
AcDbText
 62
2
  6
CONTINUOUS
 10
79.1313112127
 20
85.4342245384
  7
STANDARD
 40
2.5
  1
11
 72
5
 11
82.7694435084
 21
85.4342245384
100
AcDbText
  0
TEXT
  5
26A
100
AcDbEntity
  8
0
100
AcDbText
 62
2
  6
CONTINUOUS
 10
82.7694435084
 20
85.4342245384
  7
STANDARD
 40
2.5
  1
 mm
 72
5
 11
89.5204162711
 21
85.4342245384
100
AcDbText
  0
TEXT
  5
26B
100
AcDbEntity
  8
0
100
AcDbText
 62
2
  6
CONTINUOUS
 10
79.1313112127
 20
81.6842245384
  7
STANDARD
 40
2.5
  1
3/8"
 72
5
 11
85.6682761932
 21
81.6842245384
100
AcDbText
  0
LINE
  5
26C
100
AcDbEntity
  8
0
100
AcDbLine
 62
2
  6
CONTINUOUS
 10
63.5205057971
 20
89.3237745075
 11
63.5205057971
 21
85.1842245384
  0
LINE
  5
26D
100
AcDbEntity
  8
0
100
AcDbLine
 62
2
  6
CONTINUOUS
 10
74.5205057971
 20
76.0554617063
 11
74.5205057971
 21
88.1842245384
  0
LINE
  5
26E
100
AcDbEntity
  8
0
100
AcDbLine
 62
2
  6
CONTINUOUS
 10
63.5205057971
 20
86.6842245384
 11
69.0205057971
 21
86.6842245384
  0
LINE
  5
26F
100
AcDbEntity
  8
0
100
AcDbLine
 62
2
  6
CONTINUOUS
 10
74.5205057971
 20
86.6842245384
 11
69.0205057971
 21
86.6842245384
  0
LINE
  5
270
100
AcDbEntity
  8
0
100
AcDbLine
 62
2
  6
CONTINUOUS
 10
69.0205057971
 20
86.6842245384
 11
77.8813112127
 21
86.6842245384
  0
INSERT
  5
271
100
AcDbEntity
  8
0
100
AcDbBlockReference
 62
2
  6
CONTINUOUS
  2
_FILLED
 10
63.5205057971
 20
86.6842245384
 41
3.5
 42
3.5
 43
3.5
 50
180.0
  0
INSERT
  5
272
100
AcDbEntity
  8
0
100
AcDbBlockReference
 62
2
  6
CONTINUOUS
  2
_FILLED
 10
74.5205057971
 20
86.6842245384
 41
3.5
 42
3.5
 43
3.5
  0
ENDBLK
  5
273
100
AcDbEntity
  8
0
  6
BYBLOCK
 62
0
100
AcDbBlockEnd
  0
BLOCK
  5
274
100
AcDbEntity
  8
0
100
AcDbBlockBegin
 62
2
  6
CONTINUOUS
  2
*D7
 70
65
 10
0.0
 20
0.0
  3
*D7
  1

  0
TEXT
  5
275
100
AcDbEntity
  8
0
100
AcDbText
 62
2
  6
CONTINUOUS
 10
102.1243820656
 20
130.6484063205
  7
STANDARD
 40
2.5
  1
8
 72
5
 11
103.9434482135
 21
130.6484063205
100
AcDbText
  0
TEXT
  5
276
100
AcDbEntity
  8
0
100
AcDbText
 62
2
  6
CONTINUOUS
 10
103.9434482135
 20
130.6484063205
  7
STANDARD
 40
2.5
  1
 mm
 72
5
 11
110.6944209761
 21
130.6484063205
100
AcDbText
  0
TEXT
  5
277
100
AcDbEntity
  8
0
100
AcDbText
 62
2
  6
CONTINUOUS
 10
102.1243820656
 20
126.8984063205
  7
STANDARD
 40
2.5
  1
1/4"
 72
5
 11
108.6613470461
 21
126.8984063205
100
AcDbText
  0
LINE
  5
278
100
AcDbEntity
  8
0
100
AcDbLine
 62
2
  6
CONTINUOUS
 10
70.2629868161
 20
144.8141555643
 11
97.6243820656
 21
144.8141555643
  0
LINE
  5
279
100
AcDbEntity
  8
0
100
AcDbLine
 62
2
  6
CONTINUOUS
 10
75.3865312009
 20
136.8915058335
 11
97.6243820656
 21
136.8915058335
  0
LINE
  5
27A
100
AcDbEntity
  8
0
100
AcDbLine
 62
2
  6
CONTINUOUS
 10
96.1243820656
 20
144.8141555643
 11
96.1243820656
 21
140.8528306989
  0
LINE
  5
27B
100
AcDbEntity
  8
0
100
AcDbLine
 62
2
  6
CONTINUOUS
 10
96.1243820656
 20
136.8915058335
 11
96.1243820656
 21
140.8528306989
  0
LINE
  5
27C
100
AcDbEntity
  8
0
100
AcDbLine
 62
2
  6
CONTINUOUS
 10
96.1243820656
 20
140.8528306989
 11
96.1243820656
 21
131.8984063205
  0
LINE
  5
27D
100
AcDbEntity
  8
0
100
AcDbLine
 62
2
  6
CONTINUOUS
 10
96.1243820656
 20
131.8984063205
 11
100.8743820656
 21
131.8984063205
  0
INSERT
  5
27E
100
AcDbEntity
  8
0
100
AcDbBlockReference
 62
2
  6
CONTINUOUS
  2
_FILLED
 10
96.1243820656
 20
144.8141555643
 41
3.5
 42
3.5
 43
3.5
 50
90.0
  0
INSERT
  5
27F
100
AcDbEntity
  8
0
100
AcDbBlockReference
 62
2
  6
CONTINUOUS
  2
_FILLED
 10
96.1243820656
 20
136.8915058335
 41
3.5
 42
3.5
 43
3.5
 50
270.0
  0
ENDBLK
  5
280
100
AcDbEntity
  8
0
  6
BYBLOCK
 62
0
100
AcDbBlockEnd
  0
BLOCK
  5
281
100
AcDbEntity
  8
0
100
AcDbBlockBegin
 62
2
  6
CONTINUOUS
  2
*D8
 70
65
 10
0.0
 20
0.0
  3
*D8
  1

  0
TEXT
  5
282
100
AcDbEntity
  8
0
100
AcDbText
 62
2
  6
CONTINUOUS
 10
102.725731159
 20
114.4845036105
  7
STANDARD
 40
2.5
  1
8
 72
5
 11
104.5447973068
 21
114.4845036105
100
AcDbText
  0
TEXT
  5
283
100
AcDbEntity
  8
0
100
AcDbText
 62
2
  6
CONTINUOUS
 10
104.5447973068
 20
114.4845036105
  7
STANDARD
 40
2.5
  1
 mm
 72
5
 11
111.2957700695
 21
114.4845036105
100
AcDbText
  0
TEXT
  5
284
100
AcDbEntity
  8
0
100
AcDbText
 62
2
  6
CONTINUOUS
 10
102.725731159
 20
110.7345036105
  7
STANDARD
 40
2.5
  1
1/4"
 72
5
 11
109.2626961395
 21
110.7345036105
100
AcDbText
  0
LINE
  5
285
100
AcDbEntity
  8
0
100
AcDbLine
 62
2
  6
CONTINUOUS
 10
69.7705057971
 20
111.8141555643
 11
98.225731159
 21
111.8141555643
  0
LINE
  5
286
100
AcDbEntity
  8
0
100
AcDbLine
 62
2
  6
CONTINUOUS
 10
69.7705057971
 20
103.8141555643
 11
98.225731159
 21
103.8141555643
  0
LINE
  5
287
100
AcDbEntity
  8
0
100
AcDbLine
 62
2
  6
CONTINUOUS
 10
96.725731159
 20
111.8141555643
 11
96.725731159
 21
107.8141555643
  0
LINE
  5
288
100
AcDbEntity
  8
0
100
AcDbLine
 62
2
  6
CONTINUOUS
 10
96.725731159
 20
107.8141555643
 11
96.725731159
 21
115.7345036105
  0
LINE
  5
289
100
AcDbEntity
  8
0
100
AcDbLine
 62
2
  6
CONTINUOUS
 10
96.725731159
 20
115.7345036105
 11
101.475731159
 21
115.7345036105
  0
LINE
  5
28A
100
AcDbEntity
  8
0
100
AcDbLine
 62
2
  6
CONTINUOUS
 10
96.725731159
 20
103.8141555643
 11
96.725731159
 21
107.8141555643
  0
INSERT
  5
28B
100
AcDbEntity
  8
0
100
AcDbBlockReference
 62
2
  6
CONTINUOUS
  2
_FILLED
 10
96.725731159
 20
111.8141555643
 41
3.5
 42
3.5
 43
3.5
 50
90.0
  0
INSERT
  5
28C
100
AcDbEntity
  8
0
100
AcDbBlockReference
 62
2
  6
CONTINUOUS
  2
_FILLED
 10
96.725731159
 20
103.8141555643
 41
3.5
 42
3.5
 43
3.5
 50
270.0
  0
ENDBLK
  5
28D
100
AcDbEntity
  8
0
  6
BYBLOCK
 62
0
100
AcDbBlockEnd
  0
BLOCK
  5
28E
100
AcDbEntity
  8
0
100
AcDbBlockBegin
 62
2
  6
CONTINUOUS
  2
*D9
 70
65
 10
0.0
 20
0.0
  3
*D9
  1

  0
TEXT
  5
28F
100
AcDbEntity
  8
0
100
AcDbText
 62
2
  6
CONTINUOUS
 10
81.7099388354
 20
123.1028306989
  7
STANDARD
 40
2.5
  1
25
 72
5
 11
85.3480711311
 21
123.1028306989
100
AcDbText
  0
TEXT
  5
290
100
AcDbEntity
  8
0
100
AcDbText
 62
2
  6
CONTINUOUS
 10
85.3480711311
 20
123.1028306989
  7
STANDARD
 40
2.5
  1
 mm
 72
5
 11
92.0990438937
 21
123.1028306989
100
AcDbText
  0
TEXT
  5
291
100
AcDbEntity
  8
0
100
AcDbText
 62
2
  6
CONTINUOUS
 10
85.1535186019
 20
119.3528306989
  7
STANDARD
 40
2.5
  1
1"
 72
5
 11
88.6554641272
 21
119.3528306989
100
AcDbText
  0
LINE
  5
292
100
AcDbEntity
  8
0
100
AcDbLine
 62
2
  6
CONTINUOUS
 10
75.3865312009
 20
136.8915058335
 11
88.4044913645
 21
136.8915058335
  0
LINE
  5
293
100
AcDbEntity
  8
0
100
AcDbLine
 62
2
  6
CONTINUOUS
 10
69.7705057971
 20
111.8141555643
 11
88.4044913645
 21
111.8141555643
  0
LINE
  5
294
100
AcDbEntity
  8
0
100
AcDbLine
 62
2
  6
CONTINUOUS
 10
86.9044913645
 20
136.8915058335
 11
86.9044913645
 21
126.8528306989
  0
LINE
  5
295
100
AcDbEntity
  8
0
100
AcDbLine
 62
2
  6
CONTINUOUS
 10
86.9044913645
 20
111.8141555643
 11
86.9044913645
 21
118.1028306989
  0
INSERT
  5
296
100
AcDbEntity
  8
0
100
AcDbBlockReference
 62
2
  6
CONTINUOUS
  2
_FILLED
 10
86.9044913645
 20
136.8915058335
 41
3.5
 42
3.5
 43
3.5
 50
90.0
  0
INSERT
  5
297
100
AcDbEntity
  8
0
100
AcDbBlockReference
 62
2
  6
CONTINUOUS
  2
_FILLED
 10
86.9044913645
 20
111.8141555643
 41
3.5
 42
3.5
 43
3.5
 50
270.0
  0
ENDBLK
  5
298
100
AcDbEntity
  8
0
  6
BYBLOCK
 62
0
100
AcDbBlockEnd
  0
BLOCK
  5
299
100
AcDbEntity
  8
0
100
AcDbBlockBegin
 62
2
  6
CONTINUOUS
  2
*D10
 70
65
 10
0.0
 20
0.0
  3
*D10
  1

  0
TEXT
  5
29A
100
AcDbEntity
  8
0
100
AcDbText
 62
2
  6
CONTINUOUS
 10
27.3261983792
 20
103.5641555643
  7
STANDARD
 40
2.5
  1
80
 72
5
 11
30.9643306749
 21
103.5641555643
100
AcDbText
  0
TEXT
  5
29B
100
AcDbEntity
  8
0
100
AcDbText
 62
2
  6
CONTINUOUS
 10
30.9643306749
 20
103.5641555643
  7
STANDARD
 40
2.5
  1
 mm
 72
5
 11
37.7153034375
 21
103.5641555643
100
AcDbText
  0
TEXT
  5
29C
100
AcDbEntity
  8
0
100
AcDbText
 62
2
  6
CONTINUOUS
 10
27.7347586904
 20
99.8141555643
  7
STANDARD
 40
2.5
  1
3-1/8"
 72
5
 11
37.3067431262
 21
99.8141555643
100
AcDbText
  0
LINE
  5
29D
100
AcDbEntity
  8
0
100
AcDbLine
 62
2
  6
CONTINUOUS
 10
63.7054678352
 20
144.8141555643
 11
31.0207509083
 21
144.8141555643
  0
LINE
  5
29E
100
AcDbEntity
  8
0
100
AcDbLine
 62
2
  6
CONTINUOUS
 10
55.0205057971
 20
64.8141555643
 11
31.0207509083
 21
64.8141555643
  0
LINE
  5
29F
100
AcDbEntity
  8
0
100
AcDbLine
 62
2
  6
CONTINUOUS
 10
32.5207509083
 20
144.8141555643
 11
32.5207509083
 21
107.3141555643
  0
LINE
  5
2A0
100
AcDbEntity
  8
0
100
AcDbLine
 62
2
  6
CONTINUOUS
 10
32.5207509083
 20
64.8141555643
 11
32.5207509083
 21
98.5641555643
  0
INSERT
  5
2A1
100
AcDbEntity
  8
0
100
AcDbBlockReference
 62
2
  6
CONTINUOUS
  2
_FILLED
 10
32.5207509083
 20
144.8141555643
 41
3.5
 42
3.5
 43
3.5
 50
90.0
  0
INSERT
  5
2A2
100
AcDbEntity
  8
0
100
AcDbBlockReference
 62
2
  6
CONTINUOUS
  2
_FILLED
 10
32.5207509083
 20
64.8141555643
 41
3.5
 42
3.5
 43
3.5
 50
270.0
  0
ENDBLK
  5
2A3
100
AcDbEntity
  8
0
  6
BYBLOCK
 62
0
100
AcDbBlockEnd
  0
BLOCK
  5
2A4
100
AcDbEntity
  8
0
100
AcDbBlockBegin
 62
2
  6
CONTINUOUS
  2
*D11
 70
65
 10
0.0
 20
0.0
  3
*D11
  1

  0
TEXT
  5
2A5
100
AcDbEntity
  8
0
100
AcDbText
 62
2
  6
CONTINUOUS
 10
39.8302790714
 20
91.6702358639
  7
STANDARD
 40
2.5
  1
8
 72
5
 11
41.6493452193
 21
91.6702358639
100
AcDbText
  0
TEXT
  5
2A6
100
AcDbEntity
  8
0
100
AcDbText
 62
2
  6
CONTINUOUS
 10
41.6493452193
 20
91.6702358639
  7
STANDARD
 40
2.5
  1
 mm
 72
5
 11
48.4003179819
 21
91.6702358639
100
AcDbText
  0
TEXT
  5
2A7
100
AcDbEntity
  8
0
100
AcDbText
 62
2
  6
CONTINUOUS
 10
41.8633530014
 20
87.9202358639
  7
STANDARD
 40
2.5
  1
1/4"
 72
5
 11
48.4003179819
 21
87.9202358639
100
AcDbText
  0
LINE
  5
2A8
100
AcDbEntity
  8
0
100
AcDbLine
 62
2
  6
CONTINUOUS
 10
63.5205057971
 20
92.9202358639
 11
59.5205057971
 21
92.9202358639
  0
LINE
  5
2A9
100
AcDbEntity
  8
0
100
AcDbLine
 62
2
  6
CONTINUOUS
 10
55.5205057971
 20
92.9202358639
 11
59.5205057971
 21
92.9202358639
  0
LINE
  5
2AA
100
AcDbEntity
  8
0
100
AcDbLine
 62
2
  6
CONTINUOUS
 10
59.5205057971
 20
92.9202358639
 11
49.6503179819
 21
92.9202358639
  0
INSERT
  5
2AB
100
AcDbEntity
  8
0
100
AcDbBlockReference
 62
2
  6
CONTINUOUS
  2
_FILLED
 10
63.5205057971
 20
92.9202358639
 41
3.5
 42
3.5
 43
3.5
  0
INSERT
  5
2AC
100
AcDbEntity
  8
0
100
AcDbBlockReference
 62
2
  6
CONTINUOUS
  2
_FILLED
 10
55.5205057971
 20
92.9202358639
 41
3.5
 42
3.5
 43
3.5
 50
180.0
  0
ENDBLK
  5
2AD
100
AcDbEntity
  8
0
  6
BYBLOCK
 62
0
100
AcDbBlockEnd
  0
BLOCK
  5
2AE
100
AcDbEntity
  8
0
100
AcDbBlockBegin
 62
2
  6
CONTINUOUS
  2
*D12
 70
65
 10
0.0
 20
0.0
  3
*D12
  1

  0
TEXT
  5
2AF
100
AcDbEntity
  8
0
100
AcDbText
 62
2
  6
CONTINUOUS
 10
79.2006691057
 20
150.8919202111
  7
STANDARD
 40
2.5
  1
10,1
 72
5
 11
85.8738208567
 21
150.8919202111
100
AcDbText
  0
TEXT
  5
2B0
100
AcDbEntity
  8
0
100
AcDbText
 62
2
  6
CONTINUOUS
 10
85.8738208567
 20
150.8919202111
  7
STANDARD
 40
2.5
  1
mm
 72
5
 11
91.5450270824
 21
150.8919202111
100
AcDbText
  0
TEXT
  5
2B1
100
AcDbEntity
  8
0
100
AcDbText
 62
2
  6
CONTINUOUS
 10
79.2006691057
 20
147.1419202111
  7
STANDARD
 40
2.5
  1
3/8"
 72
5
 11
85.7376340863
 21
147.1419202111
100
AcDbText
  0
LINE
  5
2B2
100
AcDbEntity
  8
0
100
AcDbLine
 62
2
  6
CONTINUOUS
 10
74.5205057971
 20
145.1141555643
 11
74.5205057971
 21
153.6419202111
  0
LINE
  5
2B3
100
AcDbEntity
  8
0
100
AcDbLine
 62
2
  6
CONTINUOUS
 10
64.3800721485
 20
145.6937838655
 11
64.3800721485
 21
153.6419202111
  0
LINE
  5
2B4
100
AcDbEntity
  8
0
100
AcDbLine
 62
2
  6
CONTINUOUS
 10
74.5205057971
 20
152.1419202111
 11
69.4502889728
 21
152.1419202111
  0
LINE
  5
2B5
100
AcDbEntity
  8
0
100
AcDbLine
 62
2
  6
CONTINUOUS
 10
69.4502889728
 20
152.1419202111
 11
77.9506691057
 21
152.1419202111
  0
LINE
  5
2B6
100
AcDbEntity
  8
0
100
AcDbLine
 62
2
  6
CONTINUOUS
 10
64.3800721485
 20
152.1419202111
 11
69.4502889728
 21
152.1419202111
  0
INSERT
  5
2B7
100
AcDbEntity
  8
0
100
AcDbBlockReference
 62
2
  6
CONTINUOUS
  2
_FILLED
 10
74.5205057971
 20
152.1419202111
 41
3.5
 42
3.5
 43
3.5
  0
INSERT
  5
2B8
100
AcDbEntity
  8
0
100
AcDbBlockReference
 62
2
  6
CONTINUOUS
  2
_FILLED
 10
64.3800721485
 20
152.1419202111
 41
3.5
 42
3.5
 43
3.5
 50
180.0
  0
ENDBLK
  5
2B9
100
AcDbEntity
  8
0
  6
BYBLOCK
 62
0
100
AcDbBlockEnd
  0
BLOCK
  5
2BA
100
AcDbEntity
  8
0
100
AcDbBlockBegin
  2
*T1
 70
1
 10
0.0
 20
0.0
  3
*T1
  1

  0
LINE
  5
2BB
100
AcDbEntity
  8
0
100
AcDbLine
 62
7
  6
CONTINUOUS
 10
0.0
 20
0.0
 11
148.0
 21
0.0
  0
LINE
  5
2BC
100
AcDbEntity
  8
0
100
AcDbLine
 62
7
  6
CONTINUOUS
 10
0.0
 20
0.0
 11
0.0
 21
-43.0
  0
LINE
  5
2BD
100
AcDbEntity
  8
0
100
AcDbLine
 62
7
  6
CONTINUOUS
 10
45.0
 20
-23.0
 11
148.0
 21
-23.0
  0
LINE
  5
2BE
100
AcDbEntity
  8
0
100
AcDbLine
 62
7
  6
CONTINUOUS
 10
45.0
 20
-28.0
 11
148.0
 21
-28.0
  0
LINE
  5
2BF
100
AcDbEntity
  8
0
100
AcDbLine
 62
7
  6
CONTINUOUS
 10
0.0
 20
-43.0
 11
148.0
 21
-43.0
  0
LINE
  5
2C0
100
AcDbEntity
  8
0
100
AcDbLine
 62
7
  6
CONTINUOUS
 10
45.0
 20
0.0
 11
45.0
 21
-43.0
  0
LINE
  5
2C1
100
AcDbEntity
  8
0
100
AcDbLine
 62
7
  6
CONTINUOUS
 10
143.0
 20
0.0
 11
143.0
 21
-23.0
  0
LINE
  5
2C2
100
AcDbEntity
  8
0
100
AcDbLine
 62
7
  6
CONTINUOUS
 10
148.0
 20
0.0
 11
148.0
 21
-43.0
  0
TEXT
  5
2C3
100
AcDbEntity
  8
NOTES
100
AcDbText
 62
7
  6
CONTINUOUS
 10
8.9659749243
 20
-10.675
  7
STANDARD
 40
8.0
  1
O
 72
5
 11
17.370644185
 21
-10.675
100
AcDbText
  0
TEXT
  5
2C4
100
AcDbEntity
  8
NOTES
100
AcDbText
 62
7
  6
CONTINUOUS
 10
17.370644185
 20
-10.675
  7
STANDARD
 40
5.5
  1
RAC
 72
5
 11
33.9562472979
 21
-10.675
100
AcDbText
  0
TEXT
  5
2C5
100
AcDbEntity
  8
NOTES
100
AcDbText
 62
7
  6
CONTINUOUS
 10
33.9562472979
 20
-5.925
  7
TEXTSTYLE_2
 40
3.0
  1
®
 72
5
 11
36.0340250757
 21
-5.925
100
AcDbText
  0
TEXT
  5
2C6
100
AcDbEntity
  8
NOTES
100
AcDbText
 62
7
  6
CONTINUOUS
 10
9.5323389537
 20
-15.325
  7
TEXTSTYLE_2
 40
3.0
  1
D  E  C  O  R
 72
5
 11
34.3878945093
 21
-15.325
100
AcDbText
  0
TEXT
  5
2C7
100
AcDbEntity
  8
NOTES
100
AcDbText
 62
7
  6
CONTINUOUS
 10
34.3878945093
 20
-15.325
  7
STANDARD
 40
2.5
  1
 
 72
5
 11
35.4676610463
 21
-15.325
100
AcDbText
  0
TEXT
  5
2C8
100
AcDbEntity
  8
NOTES
100
AcDbText
 62
7
  6
CONTINUOUS
 10
54.0999513619
 20
-6.0
  7
STANDARD
 40
2.75
  1
Part name:
 72
5
 11
71.9375
 21
-6.0
100
AcDbText
  0
TEXT
  5
2C9
100
AcDbEntity
  8
NOTES
100
AcDbText
 62
7
  6
CONTINUOUS
 10
50.2264105058
 20
-12.875
  7
STANDARD
 40
2.75
  1
Designed by:
 72
5
 11
71.9375
 21
-12.875
100
AcDbText
  0
TEXT
  5
2CA
100
AcDbEntity
  8
NOTES
100
AcDbText
 62
7
  6
CONTINUOUS
 10
50.2264105058
 20
-19.75
  7
STANDARD
 40
2.75
  1
Designed on:
 72
5
 11
71.9375
 21
-19.75
100
AcDbText
  0
TEXT
  5
2CB
100
AcDbEntity
  8
NOTES
100
AcDbText
 62
2
  6
CONTINUOUS
 10
74.0625
 20
-6.0
  7
STANDARD
 40
2.75
  1
SX195
 72
5
 11
85.1053015564
 21
-6.0
100
AcDbText
  0
TEXT
  5
2CC
100
AcDbEntity
  8
NOTES
100
AcDbText
 62
2
  6
CONTINUOUS
 10
74.0625
 20
-12.875
  7
STANDARD
 40
2.75
  1
ORAC
 72
5
 11
85.2444066148
 21
-12.875
100
AcDbText
  0
TEXT
  5
2CD
100
AcDbEntity
  8
NOTES
100
AcDbText
 62
2
  6
CONTINUOUS
 10
74.0625
 20
-19.75
  7
STANDARD
 40
2.75
  1
18-06-2020
 72
5
 11
92.7453793774
 21
-19.75
100
AcDbText
  0
TEXT
  5
2CE
100
AcDbEntity
  8
NOTES
100
AcDbText
 62
2
  6
CONTINUOUS
 10
146.5625
 20
-16.5515564202
  7
STANDARD
 40
1.5
  1
Version: 1 
 50
90.0
 72
5
 11
146.5625
 21
-6.4484435798
100
AcDbText
  0
TEXT
  5
2CF
100
AcDbEntity
  8
NOTES
100
AcDbText
 62
7
  6
CONTINUOUS
 10
10.5836575875
 20
-24.25
  7
STANDARD
 40
2.5
  1
Biekorfstraat 32
 72
5
 11
34.4163424125
 21
-24.25
100
AcDbText
  0
TEXT
  5
2D0
100
AcDbEntity
  8
NOTES
100
AcDbText
 62
7
  6
CONTINUOUS
 10
3.560311284
 20
-28.0
  7
STANDARD
 40
2.5
  1
8400 Oostende - Belgium
 72
5
 11
41.439688716
 21
-28.0
100
AcDbText
  0
TEXT
  5
2D1
100
AcDbEntity
  8
NOTES
100
AcDbText
 62
7
  6
CONTINUOUS
 10
3.9688715953
 20
-31.75
  7
STANDARD
 40
2.5
  1
Tel  +32 (0)59 80 32 52
 72
5
 11
41.0311284047
 21
-31.75
100
AcDbText
  0
TEXT
  5
2D2
100
AcDbEntity
  8
NOTES
100
AcDbText
 62
7
  6
CONTINUOUS
 10
6.9017509728
 20
-35.5
  7
STANDARD
 40
2.5
  1
www.oracdecor.com
 72
5
 11
38.0982490272
 21
-35.5
100
AcDbText
  0
TEXT
  5
2D3
100
AcDbEntity
  8
NOTES
100
AcDbText
 62
7
  6
CONTINUOUS
 10
6.9017509728
 20
-39.25
  7
STANDARD
 40
2.5
  1
info@oracdecor.com
 72
5
 11
38.0982490272
 21
-39.25
100
AcDbText
  0
TEXT
  5
2D4
100
AcDbEntity
  8
NOTES
100
AcDbText
 62
7
  6
CONTINUOUS
 10
46.0625
 20
-26.4
  7
STANDARD
 40
2.15
  1
All dimensions are in mm[inches]and scale 1:1, unless otherwise specified
 72
5
 11
141.3484922179
 21
-26.4
100
AcDbText
  0
TEXT
  5
2D5
100
AcDbEntity
  8
NOTES
100
AcDbText
 62
7
  6
CONTINUOUS
 10
46.0625
 20
-31.7075
  7
STANDARD
 40
1.85
  1
All information in this document is Orac's exclusive property.  It may in no case 
 72
5
 11
136.0214494163
 21
-31.7075
100
AcDbText
  0
TEXT
  5
2D6
100
AcDbEntity
  8
NOTES
100
AcDbText
 62
7
  6
CONTINUOUS
 10
46.0625
 20
-34.8525
  7
STANDARD
 40
1.85
  1
be reproduced, even partly, be communicated to a third party or used for any 
 72
5
 11
132.2278696498
 21
-34.8525
100
AcDbText
  0
TEXT
  5
2D7
100
AcDbEntity
  8
NOTES
100
AcDbText
 62
7
  6
CONTINUOUS
 10
46.0625
 20
-37.9975
  7
STANDARD
 40
1.85
  1
possible purpose without ORAC's express written permission. 
 72
5
 11
115.4698929961
 21
-37.9975
100
AcDbText
  0
TEXT
  5
2D8
100
AcDbEntity
  8
NOTES
100
AcDbText
 62
7
  6
CONTINUOUS
 10
46.0625
 20
-41.1425
  7
STANDARD
 40
1.85
  1
Further legal information can be found at http://www.oracdecor.be/nl/disclaimer 
 72
5
 11
136.2733949416
 21
-41.1425
100
AcDbText
  0
ENDBLK
  5
2D9
100
AcDbEntity
  8
0
  6
BYBLOCK
 62
0
100
AcDbBlockEnd
  0
ENDSEC
  0
SECTION
  2
ENTITIES
  0
VIEWPORT
  5
2DA
100
AcDbEntity
 67
1
  8
0
100
AcDbViewport
 10
148.5
 20
105.0
 30
0.0
 40
297.0
 41
210.0
 68
1
 69
1
 12
148.5
 22
105.0
 13
0.0
 23
0.0
 14
10.0
 24
10.0
 15
10.0
 25
10.0
 16
0.0
 26
0.0
 36
1.0
 17
0.0
 27
0.0
 37
0.0
 42
50.0
 43
0.0
 44
0.0
 45
210.0
 50
0.0
 51
0.0
 72
100
 90
32864
  1

281
0
 71
1
 74
0
110
0.0
120
0.0
130
0.0
111
1.0
121
0.0
131
0.0
112
0.0
122
1.0
132
0.0
 79
0
146
0.0
  0
DIMENSION
  5
2DB
100
AcDbEntity
 67
1
  8
0
100
AcDbDimension
 62
2
  6
CONTINUOUS
  2
*D0
 10
58.6188361139
 20
161.6192079719
 11
84.7150880263
 21
159.7442079719
 70
160
 71
1
 72
2
 41
0.9
 42
15.9016696832
  1
<> mm\P5/8"
  3
DIMSTYLE_1
100
AcDbAlignedDimension
 13
74.5205057971
 23
143.1862238198
 14
58.6188361139
 24
138.8217824903
 50
180.0
100
AcDbRotatedDimension
  0
DIMENSION
  5
2DC
100
AcDbEntity
 67
1
  8
0
100
AcDbDimension
 62
2
  6
CONTINUOUS
  2
*D1
 10
56.5413240339
 20
171.7452055679
 11
84.7150880263
 21
169.8702055679
 70
160
 71
1
 72
2
 41
0.9
 42
17.9791817632
  1
<> mm\P45/64"
  3
DIMSTYLE_2
100
AcDbAlignedDimension
 13
74.5205057971
 23
143.1862238198
 14
56.5413240339
 24
125.713074639
 50
180.0
100
AcDbRotatedDimension
  0
DIMENSION
  5
2DD
100
AcDbEntity
 67
1
  8
0
100
AcDbDimension
 62
2
  6
CONTINUOUS
  2
*D2
 10
55.5205057971
 20
56.7686427074
 11
65.0205057971
 21
54.8936427074
 70
160
 71
2
 72
2
 41
0.9
 42
19.0
  1
<> mm\P3/4"
  3
DIMSTYLE_2
100
AcDbAlignedDimension
 13
74.5205057971
 23
69.6007204387
 14
55.5205057971
 24
65.3141555643
 50
180.0
100
AcDbRotatedDimension
  0
DIMENSION
  5
2DE
100
AcDbEntity
 67
1
  8
0
100
AcDbDimension
 62
2
  6
CONTINUOUS
  2
*D3
 10
96.6957717931
 20
64.8141555643
 11
108.498300976
 21
55.5420963603
 70
160
 71
1
 72
2
 41
0.9
 42
4.1778034454
  1
<> mm\P11-64"
  3
DIMSTYLE_3
100
AcDbAlignedDimension
 13
74.3138591374
 23
68.9919590097
 14
57.7244274229
 24
64.8141555643
 50
270.0
100
AcDbRotatedDimension
  0
DIMENSION
  5
2DF
100
AcDbEntity
 67
1
  8
0
100
AcDbDimension
 62
2
  6
CONTINUOUS
  2
*D4
 10
96.725731159
 20
76.8333934507
 11
96.725731159
 21
91.7333569075
 70
160
 71
2
 72
2
 41
0.9
 42
26.9807621135
  1
<> mm\P1-1/16"
  3
DIMSTYLE_2
100
AcDbAlignedDimension
 13
68.7705057971
 23
103.8141555643
 14
69.0205057971
 24
76.8333934507
 50
270.0
100
AcDbRotatedDimension
  0
DIMENSION
  5
2E0
100
AcDbEntity
 67
1
  8
0
100
AcDbDimension
 62
2
  6
CONTINUOUS
  2
*D5
 10
102.165820759
 20
68.9919590097
 11
112.4508402142
 21
78.5975000672
 70
160
 71
1
 72
2
 41
0.9
 42
7.841434441
  1
<> mm\P1/4"
  3
DIMSTYLE_1
100
AcDbAlignedDimension
 13
69.0205057971
 23
76.8333934507
 14
74.3138591374
 24
68.9919590097
 50
270.0
100
AcDbRotatedDimension
  0
DIMENSION
  5
2E1
100
AcDbEntity
 67
1
  8
0
100
AcDbDimension
 62
2
  6
CONTINUOUS
  2
*D6
 10
74.5205057971
 20
86.6842245384
 11
84.3258637419
 21
84.8092245384
 70
160
 71
1
 72
2
 41
0.9
 42
11.0
  1
<> mm\P3/8"
  3
DIMSTYLE_2
100
AcDbAlignedDimension
 13
63.5205057971
 23
90.3237745075
 14
74.5205057971
 24
75.0554617063
100
AcDbRotatedDimension
  0
DIMENSION
  5
2E2
100
AcDbEntity
 67
1
  8
0
100
AcDbDimension
 62
2
  6
CONTINUOUS
  2
*D7
 10
96.1243820656
 20
136.8915058335
 11
106.4094015209
 21
130.0234063205
 70
160
 71
1
 72
2
 41
0.9
 42
7.9226497308
  1
<> mm\P1/4"
  3
DIMSTYLE_1
100
AcDbAlignedDimension
 13
69.2629868161
 23
144.8141555643
 14
74.3865312009
 24
136.8915058335
 50
270.0
100
AcDbRotatedDimension
  0
DIMENSION
  5
2E3
100
AcDbEntity
 67
1
  8
0
100
AcDbDimension
 62
2
  6
CONTINUOUS
  2
*D8
 10
96.725731159
 20
103.8141555643
 11
107.0107506142
 21
113.8595036105
 70
160
 71
1
 72
2
 41
0.9
 42
8.0
  1
<> mm\P1/4"
  3
DIMSTYLE_1
100
AcDbAlignedDimension
 13
68.7705057971
 23
111.8141555643
 14
68.7705057971
 24
103.8141555643
 50
270.0
100
AcDbRotatedDimension
  0
DIMENSION
  5
2E4
100
AcDbEntity
 67
1
  8
0
100
AcDbDimension
 62
2
  6
CONTINUOUS
  2
*D9
 10
86.9044913645
 20
111.8141555643
 11
86.9044913645
 21
122.4778306989
 70
160
 71
2
 72
2
 41
0.9
 42
25.0773502692
  1
<> mm\P1"
  3
DIMSTYLE_4
100
AcDbAlignedDimension
 13
74.3865312009
 23
136.8915058335
 14
68.7705057971
 24
111.8141555643
 50
270.0
100
AcDbRotatedDimension
  0
DIMENSION
  5
2E5
100
AcDbEntity
 67
1
  8
0
100
AcDbDimension
 62
2
  6
CONTINUOUS
  2
*D10
 10
32.5207509083
 20
64.8141555643
 11
32.5207509083
 21
102.9391555643
 70
160
 71
2
 72
2
 41
0.9
 42
80.0
  1
<> mm\P3-1/8"
  3
DIMSTYLE_2
100
AcDbAlignedDimension
 13
64.7054678352
 23
144.8141555643
 14
56.0205057971
 24
64.8141555643
 50
270.0
100
AcDbRotatedDimension
  0
DIMENSION
  5
2E6
100
AcDbEntity
 67
1
  8
0
100
AcDbDimension
 62
2
  6
CONTINUOUS
  2
*D11
 10
55.5205057971
 20
92.9202358639
 11
44.1152985267
 21
91.0452358639
 70
160
 71
3
 72
2
 41
0.9
 42
8.0
  1
<> mm\P1/4"
  3
DIMSTYLE_2
100
AcDbAlignedDimension
 13
63.5205057971
 23
102.8141555643
 14
55.5205057971
 24
117.0715148772
 50
180.0
100
AcDbRotatedDimension
  0
DIMENSION
  5
2E7
100
AcDbEntity
 67
1
  8
0
100
AcDbDimension
 62
2
  6
CONTINUOUS
  2
*D12
 10
64.3800721485
 20
152.1419202111
 11
85.3728480941
 21
150.2669202111
 70
160
 71
1
 72
2
 41
0.9
 42
10.1404336486
  1
<>mm\P3/8"
  3
DIMSTYLE_3
100
AcDbAlignedDimension
 13
74.5205057971
 23
144.1141555643
 14
64.3800721485
 24
144.6937838655
 50
180.0
100
AcDbRotatedDimension
  0
ACAD_TABLE
  5
2E8
100
AcDbEntity
 67
1
  8
0
 62
2
  6
CONTINUOUS
100
AcDbBlockReference
  2
*T1
 10
143.9999958937
 20
47.9999925619
 30
0.0
100
AcDbTable
342
       384
343
219
 11
1.0
 21
0.0
 31
0.0
 90
22
 91
4
 92
4
 93
0
 94
0
 95
0
 96
0
141
18.0
141
5.0
141
5.0
141
15.0
142
45.0
142
28.0
142
70.0
142
5.0
171
1
172
0
173
0
174
0
175
1
176
1
 91
41
178
0
145
0.0
301
CELL_VALUE
 90
4
  1
\A1;O\H5.5;RAC\fCG Triumvirate;\H3.0;\S®^ ;\PD  E  C  O  R\fCG Times;\H2.5; 
304
ACVALUE_END
170
5
140
8.0
 64
7
171
1
172
0
173
0
174
0
175
1
176
2
 91
41
178
0
145
0.0
301
CELL_VALUE
 90
4
  1
Part name:\PDesigned by:\PDesigned on:
304
ACVALUE_END
170
6
140
2.75
 64
7
171
1
172
0
173
0
174
0
175
1
176
2
 91
33
178
0
145
0.0
301
CELL_VALUE
 90
4
  1
SX195\PORAC\P18-06-2020
304
ACVALUE_END
170
4
140
2.75
171
1
172
0
173
0
174
0
175
1
176
2
 91
33
178
0
145
1.5707963268
301
CELL_VALUE
 90
4
  1
Version: 1 
304
ACVALUE_END
170
6
140
1.5
171
1
172
0
173
0
174
0
175
1
176
3
 91
41
178
0
145
0.0
301
CELL_VALUE
 90
4
  1
Biekorfstraat 32\P8400 Oostende - Belgium\PTel  +32 (0)59 80 32 52\Pwww.oracdecor.com\Pinfo@oracdecor.com
304
ACVALUE_END
170
5
140
2.5
 64
7
171
1
172
0
173
1
174
0
175
1
176
1
 91
1
178
0
145
0.0
170
1
171
1
172
0
173
1
174
0
175
1
176
1
 91
1
178
0
145
0.0
170
1
171
1
172
0
173
1
174
0
175
1
176
1
 91
1
178
0
145
0.0
170
1
171
1
172
0
173
1
174
0
175
1
176
1
 91
1
178
0
145
0.0
170
1
171
1
172
0
173
0
174
0
175
3
176
1
 91
41
178
0
145
0.0
301
CELL_VALUE
 90
4
  1
All dimensions are in mm[inches]and scale 1:1, unless otherwise specified
304
ACVALUE_END
170
1
140
2.15
 64
7
171
1
172
0
173
1
174
0
175
1
176
1
 91
1
178
0
145
0.0
170
1
171
1
172
0
173
1
174
0
175
1
176
1
 91
1
178
0
145
0.0
170
1
171
1
172
0
173
1
174
0
175
1
176
1
 91
1
178
0
145
0.0
170
1
171
1
172
0
173
0
174
0
175
3
176
1
 91
41
178
0
145
0.0
301
CELL_VALUE
 90
4
  2
All information in this document is Orac's exclusive property.  It may in no case \Pbe reproduced, even partly, be communicated to a third party or used for any \Ppossible purpose without ORAC's express written permission. \PFurther legal information
  1
 can be found at http://www.oracdecor.be/nl/disclaimer 
304
ACVALUE_END
170
4
140
1.85
 64
7
171
1
172
0
173
1
174
0
175
1
176
1
 91
1
178
0
145
0.0
170
1
171
1
172
0
173
1
174
0
175
1
176
1
 91
1
178
0
145
0.0
170
1
  0
LINE
  5
2E9
100
AcDbEntity
 67
1
  8
0
100
AcDbLine
 62
5
  6
CONTINUOUS
 10
0.0
 20
0.0
 11
0.0
 21
210.0
  0
LINE
  5
2EA
100
AcDbEntity
 67
1
  8
0
100
AcDbLine
 62
7
  6
CONTINUOUS
 10
5.0
 20
5.0
 11
5.0
 21
195.0
  0
LINE
  5
2EB
100
AcDbEntity
 67
1
  8
0
100
AcDbLine
 62
5
  6
CONTINUOUS
 10
0.0
 20
0.0
 11
297.0
 21
0.0
  0
LINE
  5
2EC
100
AcDbEntity
 67
1
  8
0
100
AcDbLine
 62
7
  6
CONTINUOUS
 10
5.0
 20
5.0
 11
292.0
 21
5.0
  0
LINE
  5
2ED
100
AcDbEntity
 67
1
  8
0
100
AcDbLine
 62
4
  6
CONTINUOUS
 10
148.5
 20
195.0
 11
148.5
 21
205.0
  0
LINE
  5
2EE
100
AcDbEntity
 67
1
  8
0
100
AcDbLine
 62
7
  6
CONTINUOUS
 10
5.0
 20
195.0
 11
292.0
 21
195.0
  0
LINE
  5
2EF
100
AcDbEntity
 67
1
  8
0
100
AcDbLine
 62
5
  6
CONTINUOUS
 10
0.0
 20
210.0
 11
297.0
 21
210.0
  0
LINE
  5
2F0
100
AcDbEntity
 67
1
  8
0
100
AcDbLine
 62
7
  6
CONTINUOUS
 10
292.0
 20
5.0
 11
292.0
 21
195.0
  0
LINE
  5
2F1
100
AcDbEntity
 67
1
  8
0
100
AcDbLine
 62
5
  6
CONTINUOUS
 10
297.0
 20
0.0
 11
297.0
 21
210.0
  0
LINE
  5
2F2
100
AcDbEntity
 67
1
  8
DTM_AXIS
100
AcDbLine
 62
7
  6
CONTINUOUS
 10
56.0205057971
 20
64.8141555643
 11
59.4283490488
 21
64.8141555643
  0
LINE
  5
2F3
100
AcDbEntity
 67
1
  8
DTM_AXIS
100
AcDbLine
 62
7
  6
CONTINUOUS
 10
73.7793248422
 20
68.6347946124
 11
59.6095223803
 21
64.8380074859
  0
LINE
  5
2F4
100
AcDbEntity
 67
1
  8
DTM_AXIS
100
AcDbLine
 62
7
  6
CONTINUOUS
 10
59.3172051481
 20
140.3541835794
 11
64.3800721485
 21
144.6937838655
  0
LINE
  5
2F5
100
AcDbEntity
 67
1
  8
DTM_AXIS
100
AcDbLine
 62
7
  6
CONTINUOUS
 10
73.5205057971
 20
76.8333934507
 11
64.5205057971
 21
76.8333934507
  0
LINE
  5
2F6
100
AcDbEntity
 67
1
  8
DTM_AXIS
100
AcDbLine
 62
7
  6
CONTINUOUS
 10
57.5494169431
 20
127.8430667103
 11
61.1975903997
 21
131.4912401669
  0
LINE
  5
2F7
100
AcDbEntity
 67
1
  8
DTM_AXIS
100
AcDbLine
 62
7
  6
CONTINUOUS
 10
74.0205057971
 20
136.5254804297
 11
70.5761285205
 21
134.5368682819
  0
LINE
  5
2F8
100
AcDbEntity
 67
1
  8
DTM_AXIS
100
AcDbLine
 62
7
  6
CONTINUOUS
 10
56.3991854535
 20
119.1928352207
 11
57.3611279994
 21
120.1547777666
  0
LINE
  5
2F9
100
AcDbEntity
 67
1
  8
DTM_AXIS
100
AcDbLine
 62
7
  6
CONTINUOUS
 10
66.8544446492
 20
125.8343859174
 11
65.9218389837
 21
124.9017802519
  0
LINE
  5
2FA
100
AcDbEntity
 67
1
  8
DTM_AXIS
100
AcDbLine
 62
7
  6
CONTINUOUS
 10
55.5205057971
 20
117.0715148772
 11
55.5205057971
 21
65.3141555643
  0
LINE
  5
2FB
100
AcDbEntity
 67
1
  8
DTM_AXIS
100
AcDbLine
 62
7
  6
CONTINUOUS
 10
74.4478655639
 20
141.8841211746
 11
74.167126478
 21
141.188326465
  0
LINE
  5
2FC
100
AcDbEntity
 67
1
  8
DTM_AXIS
100
AcDbLine
 62
7
  6
CONTINUOUS
 10
74.167126478
 20
72.45922255
 11
74.4478655639
 21
71.7634278404
  0
LINE
  5
2FD
100
AcDbEntity
 67
1
  8
DTM_AXIS
100
AcDbLine
 62
7
  6
CONTINUOUS
 10
63.5205057971
 20
114.6774362657
 11
63.5205057971
 21
112.8141555643
  0
LINE
  5
2FE
100
AcDbEntity
 67
1
  8
DTM_AXIS
100
AcDbLine
 62
7
  6
CONTINUOUS
 10
63.5205057971
 20
102.8141555643
 11
63.5205057971
 21
77.8333934507
  0
LINE
  5
2FF
100
AcDbEntity
 67
1
  8
DTM_AXIS
100
AcDbLine
 62
7
  6
CONTINUOUS
 10
73.0205057971
 20
103.8141555643
 11
64.5205057971
 21
103.8141555643
  0
LINE
  5
300
100
AcDbEntity
 67
1
  8
DTM_AXIS
100
AcDbLine
 62
7
  6
CONTINUOUS
 10
57.6110150257
 20
122.6783917214
 11
57.1121146471
 21
123.4267422893
  0
LINE
  5
301
100
AcDbEntity
 67
1
  8
DTM_AXIS
100
AcDbLine
 62
7
  6
CONTINUOUS
 10
73.0205057971
 20
111.8141555643
 11
64.5205057971
 21
111.8141555643
  0
LINE
  5
302
100
AcDbEntity
 67
1
  8
DTM_AXIS
100
AcDbLine
 62
7
  6
CONTINUOUS
 10
74.0205057971
 20
110.8141555643
 11
74.0205057971
 21
104.8141555643
  0
LINE
  5
303
100
AcDbEntity
 67
1
  8
DTM_AXIS
100
AcDbLine
 62
7
  6
CONTINUOUS
 10
74.5205057971
 20
69.6007204387
 11
74.5205057971
 21
71.3892569397
  0
LINE
  5
304
100
AcDbEntity
 67
1
  8
DTM_AXIS
100
AcDbLine
 62
7
  6
CONTINUOUS
 10
74.5205057971
 20
74.2775299618
 11
74.5205057971
 21
75.8333934507
  0
LINE
  5
305
100
AcDbEntity
 67
1
  8
DTM_AXIS
100
AcDbLine
 62
7
  6
CONTINUOUS
 10
74.5205057971
 20
137.3915058335
 11
74.5205057971
 21
139.3700190532
  0
LINE
  5
306
100
AcDbEntity
 67
1
  8
DTM_AXIS
100
AcDbLine
 62
7
  6
CONTINUOUS
 10
74.5205057971
 20
142.2582920754
 11
74.5205057971
 21
144.1141555643
  0
LINE
  5
307
100
AcDbEntity
 67
1
  8
DTM_AXIS
100
AcDbLine
 62
7
  6
CONTINUOUS
 10
74.4478655639
 20
73.9033590611
 11
74.167126478
 21
73.2075643515
  0
LINE
  5
308
100
AcDbEntity
 67
1
  8
DTM_AXIS
100
AcDbLine
 62
7
  6
CONTINUOUS
 10
60.9968232551
 20
135.9172243492
 11
59.3384190956
 21
137.2992278155
  0
LINE
  5
309
100
AcDbEntity
 67
1
  8
DTM_AXIS
100
AcDbLine
 62
7
  6
CONTINUOUS
 10
74.167126478
 20
140.4399846635
 11
74.4478655639
 21
139.7441899539
  0
LINE
  5
30A
100
AcDbEntity
 67
1
  8
DTM_AXIS
100
AcDbLine
 62
7
  6
CONTINUOUS
 10
73.8205057971
 20
144.8141555643
 11
64.7054678352
 21
144.8141555643
  0
LINE
  5
30B
100
AcDbEntity
 67
1
  8
DTM_AXIS
100
AcDbLine
 62
7
  6
CONTINUOUS
 10
136.9454109634
 20
171.333487121
 11
141.9791944485
 21
175.6991068887
  0
LINE
  5
30C
100
AcDbEntity
 67
1
  8
DTM_AXIS
100
AcDbLine
 62
7
  6
CONTINUOUS
 10
133.2579007897
 20
148.0334257852
 11
133.4837063084
 21
96.2815441077
  0
LINE
  5
30D
100
AcDbEntity
 67
1
  8
DTM_AXIS
100
AcDbLine
 62
7
  6
CONTINUOUS
 10
135.235750239
 20
158.8144488222
 11
138.8606931176
 21
162.4813161002
  0
LINE
  5
30E
100
AcDbEntity
 67
1
  8
DTM_AXIS
100
AcDbLine
 62
7
  6
CONTINUOUS
 10
134.1255638956
 20
150.1591171108
 11
135.0813810525
 21
151.1259888033
  0
LINE
  5
30F
100
AcDbEntity
 67
1
  8
DTM_AXIS
100
AcDbLine
 62
7
  6
CONTINUOUS
 10
277.9746179321
 20
72.5457554934
 11
263.8497898322
 21
68.6752622369
  0
LINE
  5
310
100
AcDbEntity
 67
1
  8
DTM_AXIS
100
AcDbLine
 62
7
  6
CONTINUOUS
 10
260.2680731342
 20
68.6326423112
 11
263.6690838059
 21
68.6504653045
  0
LINE
  5
311
100
AcDbEntity
 67
1
  8
DTM_AXIS
100
AcDbLine
 62
7
  6
CONTINUOUS
 10
277.6805491969
 20
80.742133028
 11
268.6985938122
 21
80.6950630989
  0
LINE
  5
312
100
AcDbEntity
 67
1
  8
DTM_AXIS
100
AcDbLine
 62
7
  6
CONTINUOUS
 10
260.160790862
 20
68.643760382
 11
133.8776029431
 21
95.795330091
  0
LINE
  5
313
100
AcDbEntity
 67
1
  8
DTM_AXIS
100
AcDbLine
 62
7
  6
CONTINUOUS
 10
259.7668942272
 20
69.1299743986
 11
133.4837063084
 21
96.2815441077
  0
LINE
  5
314
100
AcDbEntity
 67
1
  8
DTM_AXIS
100
AcDbLine
 62
7
  6
CONTINUOUS
 10
135.3197571156
 20
153.6506425837
 11
134.8185921286
 21
154.3963047064
  0
LINE
  5
315
100
AcDbEntity
 67
1
  8
DTM_AXIS
100
AcDbLine
 62
7
  6
CONTINUOUS
 10
268.6985938122
 20
80.6950630989
 11
268.2804901283
 21
80.7849576566
  0
LINE
  5
316
100
AcDbEntity
 67
1
  8
DTM_AXIS
100
AcDbLine
 62
7
  6
CONTINUOUS
 10
267.6909991886
 20
82.8899404114
 11
277.6805491969
 21
80.742133028
  0
LINE
  5
317
100
AcDbEntity
 67
1
  8
DTM_AXIS
100
AcDbLine
 62
7
  6
CONTINUOUS
 10
267.6908948251
 20
82.9138592482
 11
277.6854600369
 21
80.7649735689
  0
LINE
  5
318
100
AcDbEntity
 67
1
  8
DTM_AXIS
100
AcDbLine
 62
7
  6
CONTINUOUS
 10
277.0638407825
 20
107.7174246911
 11
268.5808829192
 21
107.6729697581
  0
LINE
  5
319
100
AcDbEntity
 67
1
  8
DTM_AXIS
100
AcDbLine
 62
7
  6
CONTINUOUS
 10
277.0289386126
 20
115.7165780273
 11
268.5459807493
 21
115.6721230943
  0
LINE
  5
31A
100
AcDbEntity
 67
1
  8
DTM_AXIS
100
AcDbLine
 62
7
  6
CONTINUOUS
 10
138.641018946
 20
166.9057818569
 11
136.979910451
 21
168.2789656209
  0
LINE
  5
31B
100
AcDbEntity
 67
1
  8
DTM_AXIS
100
AcDbLine
 62
7
  6
CONTINUOUS
 10
268.5459807493
 20
115.6721230943
 11
268.1278770654
 21
115.762017652
  0
LINE
  5
31C
100
AcDbEntity
 67
1
  8
DTM_AXIS
100
AcDbLine
 62
7
  6
CONTINUOUS
 10
277.0289386126
 20
115.7165780273
 11
267.5388661047
 21
117.7569950416
  0
LINE
  5
31D
100
AcDbEntity
 67
1
  8
DTM_AXIS
100
AcDbLine
 62
7
  6
CONTINUOUS
 10
277.0338494526
 20
115.7394185682
 11
267.5387617413
 21
117.7809138783
  0
LINE
  5
31E
100
AcDbEntity
 67
1
  8
DTM_AXIS
100
AcDbLine
 62
7
  6
CONTINUOUS
 10
133.2579007897
 20
148.0334257852
 11
259.5410887086
 21
120.8818560761
  0
LINE
  5
31F
100
AcDbEntity
 67
1
  8
DTM_AXIS
100
AcDbLine
 62
7
  6
CONTINUOUS
 10
134.1255638956
 20
150.1591171108
 11
260.4087518145
 21
123.0075474017
  0
LINE
  5
320
100
AcDbEntity
 67
1
  8
DTM_AXIS
100
AcDbLine
 62
7
  6
CONTINUOUS
 10
135.0813810525
 20
151.1259888033
 11
261.3645689713
 21
123.9744190942
  0
LINE
  5
321
100
AcDbEntity
 67
1
  8
DTM_AXIS
100
AcDbLine
 62
7
  6
CONTINUOUS
 10
135.3197571156
 20
153.6506425837
 11
261.6029450345
 21
126.4990728747
  0
LINE
  5
322
100
AcDbEntity
 67
1
  8
DTM_AXIS
100
AcDbLine
 62
7
  6
CONTINUOUS
 10
134.8185921286
 20
154.3963047064
 11
261.1017800474
 21
127.2447349974
  0
LINE
  5
323
100
AcDbEntity
 67
1
  8
DTM_AXIS
100
AcDbLine
 62
7
  6
CONTINUOUS
 10
263.2285988822
 20
144.1819174119
 11
268.2623823674
 21
148.5475371797
  0
LINE
  5
324
100
AcDbEntity
 67
1
  8
DTM_AXIS
100
AcDbLine
 62
7
  6
CONTINUOUS
 10
277.9191237979
 20
140.4305176118
 11
274.4903282104
 21
138.4241018587
  0
LINE
  5
325
100
AcDbEntity
 67
1
  8
DTM_AXIS
100
AcDbLine
 62
7
  6
CONTINUOUS
 10
135.235750239
 20
158.8144488222
 11
261.5189381579
 21
131.6628791131
  0
LINE
  5
326
100
AcDbEntity
 67
1
  8
DTM_AXIS
100
AcDbLine
 62
7
  6
CONTINUOUS
 10
277.6833631958
 20
148.7172695328
 11
268.5866004955
 21
148.6695979561
  0
LINE
  5
327
100
AcDbEntity
 67
1
  8
DTM_AXIS
100
AcDbLine
 62
7
  6
CONTINUOUS
 10
138.8606931176
 20
162.4813161002
 11
265.1438810364
 21
135.3297463911
  0
LINE
  5
328
100
AcDbEntity
 67
1
  8
DTM_AXIS
100
AcDbLine
 62
7
  6
CONTINUOUS
 10
138.641018946
 20
166.9057818569
 11
264.9242068649
 21
139.7542121478
  0
LINE
  5
329
100
AcDbEntity
 67
1
  8
DTM_AXIS
100
AcDbLine
 62
7
  6
CONTINUOUS
 10
136.979910451
 20
168.2789656209
 11
263.2630983699
 21
141.1273959118
  0
LINE
  5
32A
100
AcDbEntity
 67
1
  8
DTM_AXIS
100
AcDbLine
 62
7
  6
CONTINUOUS
 10
261.5189381579
 20
131.6628791131
 11
265.1438810364
 21
135.3297463911
  0
LINE
  5
32B
100
AcDbEntity
 67
1
  8
DTM_AXIS
100
AcDbLine
 62
7
  6
CONTINUOUS
 10
136.9454109634
 20
171.333487121
 11
263.2285988822
 21
144.1819174119
  0
LINE
  5
32C
100
AcDbEntity
 67
1
  8
DTM_AXIS
100
AcDbLine
 62
7
  6
CONTINUOUS
 10
260.4087518145
 20
123.0075474017
 11
261.3645689713
 21
123.9744190942
  0
LINE
  5
32D
100
AcDbEntity
 67
1
  8
DTM_AXIS
100
AcDbLine
 62
7
  6
CONTINUOUS
 10
270.814073096
 20
129.7030761265
 11
269.8874060102
 21
128.7656916412
  0
LINE
  5
32E
100
AcDbEntity
 67
1
  8
DTM_AXIS
100
AcDbLine
 62
7
  6
CONTINUOUS
 10
141.9791944485
 20
175.6991068887
 11
268.2623823674
 21
148.5475371797
  0
LINE
  5
32F
100
AcDbEntity
 67
1
  8
DTM_AXIS
100
AcDbLine
 62
7
  6
CONTINUOUS
 10
142.3034125766
 20
175.8211676651
 11
268.5866004955
 21
148.6695979561
  0
LINE
  5
330
100
AcDbEntity
 67
1
  8
DTM_AXIS
100
AcDbLine
 62
7
  6
CONTINUOUS
 10
277.6833631958
 20
148.7172695328
 11
151.400175277
 21
175.8688392419
  0
LINE
  5
331
100
AcDbEntity
 67
1
  8
DTM_AXIS
100
AcDbLine
 62
7
  6
CONTINUOUS
 10
277.6868007839
 20
148.7332579114
 11
151.5503704581
 21
175.8532739427
  0
LINE
  5
332
100
AcDbEntity
 67
1
  8
DTM_AXIS
100
AcDbLine
 62
7
  6
CONTINUOUS
 10
261.6029450345
 20
126.4990728747
 11
261.1017800474
 21
127.2447349974
  0
LINE
  5
333
100
AcDbEntity
 67
1
  8
DTM_AXIS
100
AcDbLine
 62
7
  6
CONTINUOUS
 10
259.5410887086
 20
120.8818560761
 11
259.7668942272
 21
69.1299743986
  0
LINE
  5
334
100
AcDbEntity
 67
1
  8
DTM_AXIS
100
AcDbLine
 62
7
  6
CONTINUOUS
 10
151.400175277
 20
175.8688392419
 11
142.3034125766
 21
175.8211676651
  0
LINE
  5
335
100
AcDbEntity
 67
1
  8
DTM_AXIS
100
AcDbLine
 62
7
  6
CONTINUOUS
 10
264.9242068649
 20
139.7542121478
 11
263.2630983699
 21
141.1273959118
  0
LINE
  5
336
100
AcDbEntity
 67
1
  8
DTM_AXIS
100
AcDbLine
 62
7
  6
CONTINUOUS
 10
278.3449569379
 20
76.3718068799
 11
278.6281687471
 21
75.6775540715
  0
LINE
  5
337
100
AcDbEntity
 67
1
  8
DTM_AXIS
100
AcDbLine
 62
7
  6
CONTINUOUS
 10
278.3222482029
 20
145.7908263241
 11
278.04510758
 21
145.0936369892
  0
LINE
  5
338
100
AcDbEntity
 67
1
  8
DTM_AXIS
100
AcDbLine
 62
7
  6
CONTINUOUS
 10
267.5354938678
 20
118.529870774
 11
267.5436229353
 21
116.6667872692
  0
LINE
  5
339
100
AcDbEntity
 67
1
  8
DTM_AXIS
100
AcDbLine
 62
7
  6
CONTINUOUS
 10
267.5872506477
 20
106.667845599
 11
267.6962359982
 21
81.6897272738
  0
LINE
  5
33A
100
AcDbEntity
 67
1
  8
DTM_AXIS
100
AcDbLine
 62
7
  6
CONTINUOUS
 10
278.0312964266
 20
114.7219138524
 11
278.057473054
 21
108.7225488503
  0
LINE
  5
33B
100
AcDbEntity
 67
1
  8
DTM_AXIS
100
AcDbLine
 62
7
  6
CONTINUOUS
 10
278.7100987374
 20
73.5154554634
 11
278.7022957618
 21
75.3038026782
  0
LINE
  5
33C
100
AcDbEntity
 67
1
  8
DTM_AXIS
100
AcDbLine
 62
7
  6
CONTINUOUS
 10
278.6896948873
 20
78.1917700259
 11
278.6829070108
 21
79.7474688531
  0
LINE
  5
33D
100
AcDbEntity
 67
1
  8
DTM_AXIS
100
AcDbLine
 62
7
  6
CONTINUOUS
 10
278.4143430485
 20
141.2990663576
 11
278.405711248
 21
143.2773701854
  0
LINE
  5
33E
100
AcDbEntity
 67
1
  8
DTM_AXIS
100
AcDbLine
 62
7
  6
CONTINUOUS
 10
278.3931103735
 20
146.165337533
 11
278.3850136656
 21
148.0210046104
  0
LINE
  5
33F
100
AcDbEntity
 67
1
  8
DTM_AXIS
100
AcDbLine
 62
7
  6
CONTINUOUS
 10
278.0483724241
 20
144.345374387
 11
278.3315842333
 21
143.6511215786
  0
LINE
  5
340
100
AcDbEntity
 67
1
  8
DTM_AXIS
100
AcDbLine
 62
7
  6
CONTINUOUS
 10
278.6188327167
 20
77.8172588169
 11
278.3416920938
 21
77.1200694821
  0
ARC
  5
341
100
AcDbEntity
 67
1
  8
DTM_AXIS
100
AcDbCircle
 62
7
  6
CONTINUOUS
 10
59.0762700561
 20
133.6125605104
 40
11.0
100
AcDbArc
 50
315.0
 51
0.2782789012
  0
ARC
  5
342
100
AcDbEntity
 67
1
  8
DTM_AXIS
100
AcDbCircle
 62
7
  6
CONTINUOUS
 10
55.946914437
 20
121.5689913289
 40
10.0
100
AcDbArc
 50
321.2072636729
 51
13.8097302268
  0
ARC
  5
343
100
AcDbEntity
 67
1
  8
DTM_AXIS
100
AcDbCircle
 62
7
  6
CONTINUOUS
 10
60.0242906772
 20
125.3681929761
 40
3.5
100
AcDbArc
 50
135.0
 51
213.690067526
  0
ARC
  5
344
100
AcDbEntity
 67
1
  8
DTM_AXIS
100
AcDbCircle
 62
7
  6
CONTINUOUS
 10
58.5205057971
 20
117.0715148772
 40
3.0
100
AcDbArc
 50
135.0
 51
180.0
  0
ARC
  5
345
100
AcDbEntity
 67
1
  8
DTM_AXIS
100
AcDbCircle
 62
7
  6
CONTINUOUS
 10
59.0762700561
 20
133.6125605104
 40
3.0
100
AcDbArc
 50
315.0
 51
50.1944289077
  0
ARC
  5
346
100
AcDbEntity
 67
1
  8
DTM_AXIS
100
AcDbCircle
 62
7
  6
CONTINUOUS
 10
55.946914437
 20
121.5689913289
 40
2.0
100
AcDbArc
 50
315.0
 51
33.690067526
  0
ARC
  5
347
100
AcDbEntity
 67
1
  8
DTM_AXIS
100
AcDbCircle
 62
7
  6
CONTINUOUS
 10
60.618787895
 20
138.8356703747
 40
2.0
100
AcDbArc
 50
130.601294645
 51
230.1944289077
  0
ARC
  5
348
100
AcDbEntity
 67
1
  8
DTM_AXIS
100
AcDbCircle
 62
7
  6
CONTINUOUS
 10
73.5205057971
 20
142.2582920754
 40
1.0
100
AcDbArc
 50
338.0269212883
 51
360.0
  0
ARC
  5
349
100
AcDbEntity
 67
1
  8
DTM_AXIS
100
AcDbCircle
 62
7
  6
CONTINUOUS
 10
73.5205057971
 20
139.3700190532
 40
1.0
100
AcDbArc
 50
0.0
 51
21.9730787117
  0
ARC
  5
34A
100
AcDbEntity
 67
1
  8
DTM_AXIS
100
AcDbCircle
 62
7
  6
CONTINUOUS
 10
73.5205057971
 20
137.3915058335
 40
1.0
100
AcDbArc
 50
300.0
 51
360.0
  0
ARC
  5
34B
100
AcDbEntity
 67
1
  8
DTM_AXIS
100
AcDbCircle
 62
7
  6
CONTINUOUS
 10
73.0205057971
 20
110.8141555643
 40
1.0
100
AcDbArc
 50
0.0
 51
90.0
  0
ARC
  5
34C
100
AcDbEntity
 67
1
  8
DTM_AXIS
100
AcDbCircle
 62
7
  6
CONTINUOUS
 10
73.0205057971
 20
104.8141555643
 40
1.0
100
AcDbArc
 50
270.0
 51
360.0
  0
ARC
  5
34D
100
AcDbEntity
 67
1
  8
DTM_AXIS
100
AcDbCircle
 62
7
  6
CONTINUOUS
 10
73.5205057971
 20
75.8333934507
 40
1.0
100
AcDbArc
 50
0.0
 51
90.0
  0
ARC
  5
34E
100
AcDbEntity
 67
1
  8
DTM_AXIS
100
AcDbCircle
 62
7
  6
CONTINUOUS
 10
73.5205057971
 20
74.2775299618
 40
1.0
100
AcDbArc
 50
338.0269212883
 51
360.0
  0
ARC
  5
34F
100
AcDbEntity
 67
1
  8
DTM_AXIS
100
AcDbCircle
 62
7
  6
CONTINUOUS
 10
73.5205057971
 20
71.3892569397
 40
1.0
100
AcDbArc
 50
0.0
 51
21.9730787117
  0
ARC
  5
350
100
AcDbEntity
 67
1
  8
DTM_AXIS
100
AcDbCircle
 62
7
  6
CONTINUOUS
 10
73.5205057971
 20
69.6007204387
 40
1.0
100
AcDbArc
 50
285.0
 51
360.0
  0
ARC
  5
351
100
AcDbEntity
 67
1
  8
DTM_AXIS
100
AcDbCircle
 62
7
  6
CONTINUOUS
 10
75.0944862448
 20
72.8333934507
 40
1.0
100
AcDbArc
 50
158.0269212883
 51
201.9730787117
  0
ARC
  5
352
100
AcDbEntity
 67
1
  8
DTM_AXIS
100
AcDbCircle
 62
7
  6
CONTINUOUS
 10
75.0944862448
 20
140.8141555643
 40
1.0
100
AcDbArc
 50
158.0269212883
 51
201.9730787117
  0
ARC
  5
353
100
AcDbEntity
 67
1
  8
DTM_AXIS
100
AcDbCircle
 62
7
  6
CONTINUOUS
 10
71.0761285205
 20
133.6708428781
 40
1.0
100
AcDbArc
 50
120.0
 51
180.2782789012
  0
ARC
  5
354
100
AcDbEntity
 67
1
  8
DTM_AXIS
100
AcDbCircle
 62
7
  6
CONTINUOUS
 10
66.6289457649
 20
124.1946734707
 40
1.0
100
AcDbArc
 50
135.0
 51
193.8097302268
  0
ARC
  5
355
100
AcDbEntity
 67
1
  8
DTM_AXIS
100
AcDbCircle
 62
7
  6
CONTINUOUS
 10
64.5205057971
 20
114.6774362657
 40
1.0
100
AcDbArc
 50
141.2072636729
 51
180.0
  0
ARC
  5
356
100
AcDbEntity
 67
1
  8
DTM_AXIS
100
AcDbCircle
 62
7
  6
CONTINUOUS
 10
64.5205057971
 20
112.8141555643
 40
1.0
100
AcDbArc
 50
180.0
 51
270.0
  0
ARC
  5
357
100
AcDbEntity
 67
1
  8
DTM_AXIS
100
AcDbCircle
 62
7
  6
CONTINUOUS
 10
64.5205057971
 20
102.8141555643
 40
1.0
100
AcDbArc
 50
90.0
 51
180.0
  0
ARC
  5
358
100
AcDbEntity
 67
1
  8
DTM_AXIS
100
AcDbCircle
 62
7
  6
CONTINUOUS
 10
64.5205057971
 20
77.8333934507
 40
1.0
100
AcDbArc
 50
180.0
 51
270.0
  0
ARC
  5
359
100
AcDbEntity
 67
1
  8
DTM_AXIS
100
AcDbCircle
 62
7
  6
CONTINUOUS
 10
73.8205057971
 20
144.1141555643
 40
0.7
100
AcDbArc
 50
0.0
 51
90.0
  0
ARC
  5
35A
100
AcDbEntity
 67
1
  8
DTM_AXIS
100
AcDbCircle
 62
7
  6
CONTINUOUS
 10
59.4283490488
 20
65.5141555643
 40
0.7
100
AcDbArc
 50
270.0
 51
285.0
  0
ARC
  5
35B
100
AcDbEntity
 67
1
  8
DTM_AXIS
100
AcDbCircle
 62
7
  6
CONTINUOUS
 10
56.0205057971
 20
65.3141555643
 40
0.5
100
AcDbArc
 50
180.0
 51
270.0
  0
ARC
  5
35C
100
AcDbEntity
 67
1
  8
DTM_AXIS
100
AcDbCircle
 62
7
  6
CONTINUOUS
 10
64.7054678352
 20
144.3141555643
 40
0.5
100
AcDbArc
 50
90.0
 51
130.601294645
  0
ARC
  5
35D
100
AcDbEntity
 67
1
  8
DTM_AXIS
100
AcDbCircle
 62
7
  6
CONTINUOUS
 10
262.9763001937
 20
137.4485937059
 40
11.0192878292
100
AcDbArc
 50
315.3391952997
 51
0.5309006605
  0
ARC
  5
35E
100
AcDbEntity
 67
1
  8
DTM_AXIS
100
AcDbCircle
 62
7
  6
CONTINUOUS
 10
259.9082781826
 20
125.3894197265
 40
10.0187681745
100
AcDbArc
 50
321.5355277903
 51
14.0320107538
  0
ARC
  5
35F
100
AcDbEntity
 67
1
  8
DTM_AXIS
100
AcDbCircle
 62
7
  6
CONTINUOUS
 10
137.7288527681
 20
156.3502224944
 40
3.5054066946
100
AcDbArc
 50
135.3337413747
 51
213.8769879746
  0
ARC
  5
360
100
AcDbEntity
 67
1
  8
DTM_AXIS
100
AcDbCircle
 62
7
  6
CONTINUOUS
 10
264.012040687
 20
129.1986527853
 40
3.5054066946
100
AcDbArc
 50
135.3337413747
 51
213.8769879746
  0
ARC
  5
361
100
AcDbEntity
 67
1
  8
DTM_AXIS
100
AcDbCircle
 62
7
  6
CONTINUOUS
 10
136.2631326208
 20
148.046679193
 40
3.0052610555
100
AcDbArc
 50
135.3387929809
 51
180.2526791444
  0
ARC
  5
362
100
AcDbEntity
 67
1
  8
DTM_AXIS
100
AcDbCircle
 62
7
  6
CONTINUOUS
 10
262.5463205397
 20
120.8951094839
 40
3.0052610555
100
AcDbArc
 50
135.3387929809
 51
180.2526791444
  0
ARC
  5
363
100
AcDbEntity
 67
1
  8
DTM_AXIS
100
AcDbCircle
 62
7
  6
CONTINUOUS
 10
136.7252427841
 20
164.5932619465
 40
3.0032485782
100
AcDbArc
 50
315.3170634693
 51
50.3604053785
  0
ARC
  5
364
100
AcDbEntity
 67
1
  8
DTM_AXIS
100
AcDbCircle
 62
7
  6
CONTINUOUS
 10
263.0084307029
 20
137.4416922375
 40
3.0032485782
100
AcDbArc
 50
315.3170634691
 51
50.3604053781
  0
ARC
  5
365
100
AcDbEntity
 67
1
  8
DTM_AXIS
100
AcDbCircle
 62
7
  6
CONTINUOUS
 10
133.6567444727
 20
152.534118766
 40
2.0030937326
100
AcDbArc
 50
315.3338604787
 51
33.8768683084
  0
ARC
  5
366
100
AcDbEntity
 67
1
  8
DTM_AXIS
100
AcDbCircle
 62
7
  6
CONTINUOUS
 10
259.9399323915
 20
125.3825490569
 40
2.0030937326
100
AcDbArc
 50
315.3338604787
 51
33.8768683084
  0
ARC
  5
367
100
AcDbEntity
 67
1
  8
DTM_AXIS
100
AcDbCircle
 62
7
  6
CONTINUOUS
 10
138.2571942975
 20
169.820668372
 40
2.002256373
100
AcDbArc
 50
130.9289521016
 51
230.3586237932
  0
ARC
  5
368
100
AcDbEntity
 67
1
  8
DTM_AXIS
100
AcDbCircle
 62
7
  6
CONTINUOUS
 10
264.5403822162
 20
142.6690986629
 40
2.0022563728
100
AcDbArc
 50
130.9289520969
 51
230.3586237966
  0
ARC
  5
369
100
AcDbEntity
 67
1
  8
DTM_AXIS
100
AcDbCircle
 62
7
  6
CONTINUOUS
 10
268.5373961513
 20
118.5342500049
 40
1.001911854
100
AcDbArc
 50
141.5359187875
 51
180.2504334509
  0
ARC
  5
36A
100
AcDbEntity
 67
1
  8
DTM_AXIS
100
AcDbCircle
 62
7
  6
CONTINUOUS
 10
270.5999879309
 20
128.0615242343
 40
1.001810726
100
AcDbArc
 50
135.3402934112
 51
194.0329134255
  0
ARC
  5
36B
100
AcDbEntity
 67
1
  8
DTM_AXIS
100
AcDbCircle
 62
7
  6
CONTINUOUS
 10
279.2725224625
 20
76.7499924882
 40
1.001699634
100
AcDbArc
 50
158.3183562403
 51
202.1816302603
  0
ARC
  5
36C
100
AcDbEntity
 67
1
  8
DTM_AXIS
100
AcDbCircle
 62
7
  6
CONTINUOUS
 10
278.9759379487
 20
144.7235599953
 40
1.001699634
100
AcDbArc
 50
158.3183562403
 51
202.1816302603
  0
ARC
  5
36D
100
AcDbEntity
 67
1
  8
DTM_AXIS
100
AcDbCircle
 62
7
  6
CONTINUOUS
 10
274.9964098895
 20
137.5601246055
 40
1.0013022152
100
AcDbArc
 50
120.3599848008
 51
180.5394720555
  0
ARC
  5
36E
100
AcDbEntity
 67
1
  8
DTM_AXIS
100
AcDbCircle
 62
7
  6
CONTINUOUS
 10
277.4130470133
 20
141.2944911394
 40
1.0012962916
100
AcDbArc
 50
300.3598508855
 51
0.2617995659
  0
ARC
  5
36F
100
AcDbEntity
 67
1
  8
DTM_AXIS
100
AcDbCircle
 62
7
  6
CONTINUOUS
 10
277.7093886462
 20
73.5106217655
 40
1.0006929549
100
AcDbArc
 50
285.3702368719
 51
0.276751816
  0
ARC
  5
370
100
AcDbEntity
 67
1
  8
DTM_AXIS
100
AcDbCircle
 62
7
  6
CONTINUOUS
 10
277.0574214385
 20
108.7173378672
 40
1.0000009494
100
AcDbArc
 50
270.3678282011
 51
0.2985492252
  0
ARC
  5
371
100
AcDbEntity
 67
1
  8
DTM_AXIS
100
AcDbCircle
 62
7
  6
CONTINUOUS
 10
268.5873022691
 20
106.6730565884
 40
1.0000009491
100
AcDbArc
 50
90.3678285416
 51
180.2985495868
  0
ARC
  5
372
100
AcDbEntity
 67
1
  8
DTM_AXIS
100
AcDbCircle
 62
7
  6
CONTINUOUS
 10
277.0328658765
 20
114.7184709591
 40
0.9983888155
100
AcDbArc
 50
0.197572558
 51
90.2826721471
  0
ARC
  5
373
100
AcDbEntity
 67
1
  8
DTM_AXIS
100
AcDbCircle
 62
7
  6
CONTINUOUS
 10
277.6844764608
 20
79.7440259597
 40
0.9983888155
100
AcDbArc
 50
0.197572558
 51
90.2826721471
  0
ARC
  5
374
100
AcDbEntity
 67
1
  8
DTM_AXIS
100
AcDbCircle
 62
7
  6
CONTINUOUS
 10
268.5420533389
 20
116.6702300551
 40
0.9983888155
100
AcDbArc
 50
180.1975664206
 51
270.2826721471
  0
ARC
  5
375
100
AcDbEntity
 67
1
  8
DTM_AXIS
100
AcDbCircle
 62
7
  6
CONTINUOUS
 10
268.6946664019
 20
81.6931700598
 40
0.9983888155
100
AcDbArc
 50
180.1975664206
 51
270.2826721471
  0
ARC
  5
376
100
AcDbEntity
 67
1
  8
DTM_AXIS
100
AcDbCircle
 62
7
  6
CONTINUOUS
 10
263.6650033776
 20
69.3510413119
 40
0.7005878903
100
AcDbArc
 50
270.3337092226
 51
285.2932333196
  0
ARC
  5
377
100
AcDbEntity
 67
1
  8
DTM_AXIS
100
AcDbCircle
 62
7
  6
CONTINUOUS
 10
151.4036245922
 20
175.169691467
 40
0.6991562835
100
AcDbArc
 50
77.8840959647
 51
90.2826721471
  0
ARC
  5
378
100
AcDbEntity
 67
1
  8
DTM_AXIS
100
AcDbCircle
 62
7
  6
CONTINUOUS
 10
277.6861122806
 20
148.018594585
 40
0.6988721708
100
AcDbArc
 50
0.197572558
 51
90.2826721471
  0
ARC
  5
379
100
AcDbEntity
 67
1
  8
DTM_AXIS
100
AcDbCircle
 62
7
  6
CONTINUOUS
 10
133.9829203364
 20
96.283264436
 40
0.4991932874
100
AcDbArc
 50
180.1974446939
 51
257.8199415523
  0
ARC
  5
37A
100
AcDbEntity
 67
1
  8
DTM_AXIS
100
AcDbCircle
 62
7
  6
CONTINUOUS
 10
260.2661082548
 20
69.1316947266
 40
0.4991932874
100
AcDbArc
 50
180.1974446584
 51
270.2828204717
  0
ARC
  5
37B
100
AcDbEntity
 67
1
  8
DTM_AXIS
100
AcDbCircle
 62
7
  6
CONTINUOUS
 10
142.3061317977
 20
175.3223199891
 40
0.4988550873
100
AcDbArc
 50
90.3123164817
 51
130.9481204271
  0
ARC
  5
37C
100
AcDbEntity
 67
1
  8
DTM_AXIS
100
AcDbCircle
 62
7
  6
CONTINUOUS
 10
268.5893197166
 20
148.17075028
 40
0.4988550873
100
AcDbArc
 50
90.3123164817
 51
130.9481204271
  0
SPLINE
  5
37D
100
AcDbEntity
 67
1
  8
DTM_AXIS
100
AcDbSpline
 62
7
  6
CONTINUOUS
 70
0
 71
3
 72
8
 73
4
 74
0
 42
0.0000001
 43
0.0000001
 44
0.0000000001
 40
0.0
 40
0.0
 40
0.0
 40
0.0
 40
1.0
 40
1.0
 40
1.0
 40
1.0
 10
278.3222482029
 20
145.7908263241
 30
0.0
 10
278.3691807495
 20
145.9088922743
 30
0.0
 10
278.3936647261
 20
146.0382866565
 30
0.0
 10
278.3931103735
 20
146.165337533
 30
0.0
  0
SPLINE
  5
37E
100
AcDbEntity
 67
1
  8
DTM_AXIS
100
AcDbSpline
 62
7
  6
CONTINUOUS
 70
0
 71
3
 72
8
 73
4
 74
0
 42
0.0000001
 43
0.0000001
 44
0.0000000001
 40
0.0
 40
0.0
 40
0.0
 40
0.0
 40
1.0
 40
1.0
 40
1.0
 40
1.0
 10
278.405711248
 20
143.2773701854
 30
0.0
 10
278.405157077
 20
143.4043794389
 30
0.0
 10
278.3795583538
 20
143.5335199573
 30
0.0
 10
278.3315842333
 20
143.6511215786
 30
0.0
  0
SPLINE
  5
37F
100
AcDbEntity
 67
1
  8
DTM_AXIS
100
AcDbSpline
 62
7
  6
CONTINUOUS
 70
0
 71
3
 72
8
 73
4
 74
0
 42
0.0000001
 43
0.0000001
 44
0.0000000001
 40
0.0
 40
0.0
 40
0.0
 40
0.0
 40
1.0
 40
1.0
 40
1.0
 40
1.0
 10
278.6188327167
 20
77.8172588169
 30
0.0
 10
278.6657652634
 20
77.9353247671
 30
0.0
 10
278.6902492399
 20
78.0647191493
 30
0.0
 10
278.6896948873
 20
78.1917700259
 30
0.0
  0
SPLINE
  5
380
100
AcDbEntity
 67
1
  8
DTM_AXIS
100
AcDbSpline
 62
7
  6
CONTINUOUS
 70
0
 71
3
 72
8
 73
4
 74
0
 42
0.0000001
 43
0.0000001
 44
0.0000000001
 40
0.0
 40
0.0
 40
0.0
 40
0.0
 40
1.0
 40
1.0
 40
1.0
 40
1.0
 10
278.7022957618
 20
75.3038026782
 30
0.0
 10
278.7017415908
 20
75.4308119318
 30
0.0
 10
278.6761428677
 20
75.5599524502
 30
0.0
 10
278.6281687471
 20
75.6775540715
 30
0.0
  0
ENDSEC
  0
SECTION
  2
OBJECTS
  0
DICTIONARY
  5
C
100
AcDbDictionary
280
0
281
1
  3
ACAD_GROUP
350
D
  3
ACAD_MLINESTYLE
350
17
  3
ACAD_LAYOUT
350
1A
  3
ACAD_PLOTSETTINGS
350
19
  3
ACAD_PLOTSTYLENAME
350
E
  3
ACAD_TABLESTYLE
350
       381
  0
DICTIONARY
  5
D
102
{ACAD_REACTORS
330
C
102
}
100
AcDbDictionary
280
0
281
1
  0
ACDBDICTIONARYWDFLT
  5
E
102
{ACAD_REACTORS
330
C
102
}
100
AcDbDictionary
281
1
  3
Normal
350
F
100
AcDbDictionaryWithDefault
340
F
  0
DICTIONARY
  5
17
102
{ACAD_REACTORS
330
C
102
}
100
AcDbDictionary
280
0
281
1
  3
Standard
350
18
  0
DICTIONARY
  5
381
330
C
100
AcDbDictionary
281
1
  3
Standard
350
       384
  3
Standard1
350
       385
  0
DICTIONARY
  5
19
102
{ACAD_REACTORS
330
C
102
}
100
AcDbDictionary
281
1
  0
DICTIONARY
  5
1A
102
{ACAD_REACTORS
330
C
102
}
100
AcDbDictionary
281
1
  3
Model
350
382
  3
SX195-PROD-MM-INCHES_1
350
383
  0
ACDBPLACEHOLDER
  5
F
102
{ACAD_REACTORS
330
E
102
}
  0
MLINESTYLE
  5
18
102
{ACAD_REACTORS
330
17
102
}
100
AcDbMlineStyle
  2
STANDARD
 70
0
  3

 62
256
 51
90.0
 52
90.0
 71
2
 49
0.5
 62
256
  6
BYLAYER
 49
-0.5
 62
256
  6
BYLAYER
  0
LAYOUT
  5
382
102
{ACAD_REACTORS
330
1A
102
}
100
AcDbPlotSettings
  1

  2
none_device
  4

  6

 40
0.0
 41
0.0
 42
0.0
 43
0.0
 44
297.0
 45
210.0
 46
0.0
 47
0.0
 48
0.0
 49
0.0
140
0.0
141
0.0
142
1.0
143
1.0
 70
1024
 72
1
 73
0
 74
0
  7

 75
0
147
1.0
148
0.0
149
0.0
100
AcDbLayout
  1
Model
 70
0
 71
0
 10
0.0
 20
0.0
 11
297.0
 21
210.0
 12
0.0
 22
0.0
 32
0.0
 14
0.0
 24
0.0
 34
0.0
 15
0.0
 25
0.0
 35
0.0
146
0.0
 13
0.0
 23
0.0
 33
0.0
 16
1.0
 26
0.0
 36
0.0
 17
0.0
 27
1.0
 37
0.0
 76
0
330
209
345
0
346
0
  0
LAYOUT
  5
383
102
{ACAD_REACTORS
330
1A
102
}
100
AcDbPlotSettings
  1

  2
none_device
  4
ISO_A4_(297.00_x_210.00_MM)
  6

 40
0.0
 41
0.0
 42
0.0
 43
0.0
 44
297.0
 45
210.0
 46
0.0
 47
0.0
 48
0.0
 49
0.0
140
0.0
141
0.0
142
1.0
143
1.0
 70
0
 72
1
 73
0
 74
0
  7

 75
0
147
1.0
148
0.0
149
0.0
100
AcDbLayout
  1
SX195-PROD-MM-INCHES_1
 70
0
 71
1
 10
0.0
 20
0.0
 11
297.0
 21
210.0
 12
0.0
 22
0.0
 32
0.0
 14
0.0
 24
0.0
 34
0.0
 15
0.0
 25
0.0
 35
0.0
146
0.0
 13
0.0
 23
0.0
 33
0.0
 16
1.0
 26
0.0
 36
0.0
 17
0.0
 27
1.0
 37
0.0
 76
0
330
20A
331
2DA
345
0
346
0
  0
TABLESTYLE
  5
384
102
{ACAD_REACTORS
330
381
330
2E8
102
}
330
381
100
AcDbTableStyle
  3
Standard
 70
0
 71
0
 40
0.06
 41
0.06
280
1
281
1
  7
Standard
140
0.18
170
1
 62
0
 63
7
283
0
  7
Standard
140
0.18
170
1
 62
0
 63
7
283
0
  7
Standard
140
0.18
170
1
 62
0
 63
7
283
0
  0
TABLESTYLE
  5
385
102
{ACAD_REACTORS
330
381
102
}
330
381
100
AcDbTableStyle
  3
Standard1
 70
1
 71
0
 40
0.06
 41
0.06
280
1
281
1
  7
Standard
140
0.18
170
1
 62
0
 63
7
283
0
  7
Standard
140
0.18
170
1
 62
0
 63
7
283
0
  7
Standard
140
0.18
170
1
 62
0
 63
7
283
0
  0
ENDSEC
  0
EOF
