999
DXF file: O:\ORAC_PRODUCTEN\ORAC_COEX\SX\171\eagle_ontwerp\sx171-prod-mm-inches.dxf
999
Pro/ENGINEER 2021404 by Parametric Technology Corporation
  0
SECTION
  2
HEADER
  9
$ACADVER
  1
AC1032
  9
$DWGCODEPAGE
  3
ANSI_1252
  9
$EXTMAX
 10
297.0
 20
210.0
 30
0.0
  9
$EXTMIN
 10
0.0
 20
0.0
 30
0.0
  9
$LIMMIN
 10
0.0
 20
0.0
  9
$LIMMAX
 10
297.0
 20
210.0
  9
$VIEWCTR
 10
148.5
 20
105.0
  9
$VIEWSIZE
 40
210.0
  9
$CLAYER
  8
0
  9
$LTSCALE
 40
16.335
  9
$CELTYPE
  6
BYLAYER
  9
$DIMSCALE
 40
1.0
  9
$DIMASZ
 40
3.5
  9
$DIMEXO
 40
1.0
  9
$DIMDLI
 40
11.286
  9
$DIMEXE
 40
1.5
  9
$DIMCEN
 40
2.673
  9
$DIMLFAC
 40
1.0
  9
$DIMBLK
  1
_FILLED
  9
$DIMALT
 70
0
  9
$DIMALTF
 40
0.0393700787
  9
$DIMTXT
 40
2.5
  9
$DIMTOL
 70
1
  9
$DIMLIM
 70
0
  9
$DIMTFAC
 40
1.0
  9
$DIMTP
 40
0.001
  9
$DIMTM
 40
0.001
  9
$DIMGAP
 40
0.625
  9
$DIMDSEP
 70
44
  9
$AUNITS
 70
0
  9
$PDMODE
 70
3
  9
$PDSIZE
 40
8.0
  9
$HANDSEED
  5
2E5
  9
$TILEMODE
 70
0
  9
$MEASUREMENT
 70
1
  9
$INSUNITS
 70
4
  0
ENDSEC
  0
SECTION
  2
CLASSES
  0
CLASS
  1
ACDBDICTIONARYWDFLT
  2
AcDbDictionaryWithDefault
  3
AutoCAD 2000
 90
0
 91
1
280
0
281
0
  0
CLASS
  1
ACDBPLACEHOLDER
  2
AcDbPlaceHolder
  3
AutoCAD 2000
 90
0
 91
1
280
0
281
0
  0
CLASS
  1
LAYOUT
  2
AcDbLayout
  3
AutoCAD 2000
 90
0
 91
0
280
0
281
0
  0
CLASS
  1
TABLESTYLE
  2
AcDbTableStyle
  3
ObjectDBX Classes
 90
2047
 91
1
280
0
281
0
  0
CLASS
  1
ACAD_TABLE
  2
AcDbTable
  3
ObjectDBX Classes
 90
1025
 91
1
280
0
281
1
  0
ENDSEC
  0
SECTION
  2
TABLES
  0
TABLE
  2
VPORT
  5
8
100
AcDbSymbolTable
 70
2
  0
VPORT
  5
1F4
100
AcDbSymbolTableRecord
100
AcDbViewportTableRecord
  2
*ACTIVE
 70
0
 10
0.0
 20
0.0
 11
1.0
 21
1.0
 12
148.5
 22
105.0
 13
0.0
 23
0.0
 14
1.0
 24
1.0
 15
0.0
 25
0.0
 16
0.0
 26
0.0
 36
1.0
 17
0.0
 27
0.0
 37
0.0
 40
210.0
 41
1.4142857143
 42
50.0
 43
0.0
 44
0.0
 50
0.0
 51
0.0
 71
0
 72
100
 73
1
 74
1
 75
0
 76
0
 77
0
 78
0
  0
ENDTAB
  0
TABLE
  2
LTYPE
  5
5
100
AcDbSymbolTable
 70
6
  0
LTYPE
  5
14
100
AcDbSymbolTableRecord
100
AcDbLinetypeTableRecord
  2
BYBLOCK
 70
0
  3

 72
65
 73
0
 40
0.0
  0
LTYPE
  5
15
100
AcDbSymbolTableRecord
100
AcDbLinetypeTableRecord
  2
BYLAYER
 70
0
  3

 72
65
 73
0
 40
0.0
  0
LTYPE
  5
16
100
AcDbSymbolTableRecord
100
AcDbLinetypeTableRecord
  2
CONTINUOUS
 70
64
  3
Solid line
 72
65
 73
0
 40
0.0
  0
LTYPE
  5
1F5
100
AcDbSymbolTableRecord
100
AcDbLinetypeTableRecord
  2
CENTER
 70
64
  3
____ _ ____ _ ____ _ ____ _ ____ _ ____ _ ____
 72
65
 73
4
 40
0.6
 49
0.375
 74
0
 49
-0.075
 74
0
 49
0.075
 74
0
 49
-0.075
 74
0
  0
LTYPE
  5
1F6
100
AcDbSymbolTableRecord
100
AcDbLinetypeTableRecord
  2
HIDDEN
 70
64
  3
- - - - - - - - - - - - - - - - - - - -
 72
65
 73
2
 40
0.2
 49
0.1
 74
0
 49
-0.1
 74
0
  0
LTYPE
  5
1F7
100
AcDbSymbolTableRecord
100
AcDbLinetypeTableRecord
  2
PHANTOM
 70
64
  3
_____ _ _ _____ _ _ _____ _ _ _____
 72
65
 73
6
 40
0.8
 49
0.45
 74
0
 49
-0.05
 74
0
 49
0.1
 74
0
 49
-0.05
 74
0
 49
0.1
 74
0
 49
-0.05
 74
0
  0
LTYPE
  5
1F8
100
AcDbSymbolTableRecord
100
AcDbLinetypeTableRecord
  2
DOT
 70
64
  3
. . . . . . . . . . . . . . . . . . . .
 72
65
 73
2
 40
0.2
 49
0.1
 74
0
 49
-0.1
 74
0
  0
LTYPE
  5
1F9
100
AcDbSymbolTableRecord
100
AcDbLinetypeTableRecord
  2
DASHED
 70
64
  3
- - - - - - - - - - - - - - - - - - - -
 72
65
 73
2
 40
0.2
 49
0.1
 74
0
 49
-0.1
 74
0
  0
ENDTAB
  0
TABLE
  2
LAYER
  5
2
100
AcDbSymbolTable
 70
36
  0
LAYER
  5
10
100
AcDbSymbolTableRecord
100
AcDbLayerTableRecord
  2
0
 70
0
 62
7
  6
CONTINUOUS
370
-3
390
F
  0
LAYER
  5
1FA
100
AcDbSymbolTableRecord
100
AcDbLayerTableRecord
  2
DEFAULT_1
 70
0
 62
7
  6
CENTER
370
-3
390
F
  0
LAYER
  5
1FB
100
AcDbSymbolTableRecord
100
AcDbLayerTableRecord
  2
DEFAULT_2
 70
0
 62
8
  6
HIDDEN
370
-3
390
F
  0
LAYER
  5
1FC
100
AcDbSymbolTableRecord
100
AcDbLayerTableRecord
  2
DEFAULT_3
 70
0
 62
7
  6
PHANTOM
370
-3
390
F
  0
LAYER
  5
1FD
100
AcDbSymbolTableRecord
100
AcDbLayerTableRecord
  2
01___PRT_ALL_DTM_PLN
 70
0
 62
7
  6
CONTINUOUS
370
-3
390
F
  0
LAYER
  5
1FE
100
AcDbSymbolTableRecord
100
AcDbLayerTableRecord
  2
01___PRT_DEF_DTM_PLN
 70
0
 62
7
  6
CONTINUOUS
370
-3
390
F
  0
LAYER
  5
1FF
100
AcDbSymbolTableRecord
100
AcDbLayerTableRecord
  2
02___PRT_ALL_AXES
 70
0
 62
7
  6
CONTINUOUS
370
-3
390
F
  0
LAYER
  5
200
100
AcDbSymbolTableRecord
100
AcDbLayerTableRecord
  2
03___PRT_ALL_CURVES
 70
0
 62
7
  6
CONTINUOUS
370
-3
390
F
  0
LAYER
  5
201
100
AcDbSymbolTableRecord
100
AcDbLayerTableRecord
  2
04___PRT_ALL_DTM_PNT
 70
0
 62
7
  6
CONTINUOUS
370
-3
390
F
  0
LAYER
  5
202
100
AcDbSymbolTableRecord
100
AcDbLayerTableRecord
  2
05___PRT_ALL_DTM_CSYS
 70
0
 62
7
  6
CONTINUOUS
370
-3
390
F
  0
LAYER
  5
203
100
AcDbSymbolTableRecord
100
AcDbLayerTableRecord
  2
05___PRT_DEF_DTM_CSYS
 70
0
 62
7
  6
CONTINUOUS
370
-3
390
F
  0
LAYER
  5
204
100
AcDbSymbolTableRecord
100
AcDbLayerTableRecord
  2
06___PRT_ALL_SURFS
 70
0
 62
7
  6
CONTINUOUS
370
-3
390
F
  0
LAYER
  5
205
100
AcDbSymbolTableRecord
100
AcDbLayerTableRecord
  2
AXES
 70
0
 62
7
  6
CONTINUOUS
370
-3
390
F
  0
LAYER
  5
206
100
AcDbSymbolTableRecord
100
AcDbLayerTableRecord
  2
DTM_ALL
 70
0
 62
7
  6
CONTINUOUS
370
-3
390
F
  0
LAYER
  5
207
100
AcDbSymbolTableRecord
100
AcDbLayerTableRecord
  2
DTM_AXIS
 70
0
 62
7
  6
CONTINUOUS
370
-3
390
F
  0
LAYER
  5
208
100
AcDbSymbolTableRecord
100
AcDbLayerTableRecord
  2
DTM_CSYS
 70
0
 62
7
  6
CONTINUOUS
370
-3
390
F
  0
LAYER
  5
209
100
AcDbSymbolTableRecord
100
AcDbLayerTableRecord
  2
DTM_CURVE
 70
0
 62
7
  6
CONTINUOUS
370
-3
390
F
  0
LAYER
  5
20A
100
AcDbSymbolTableRecord
100
AcDbLayerTableRecord
  2
DTM_MASTER
 70
0
 62
7
  6
CONTINUOUS
370
-3
390
F
  0
LAYER
  5
20B
100
AcDbSymbolTableRecord
100
AcDbLayerTableRecord
  2
DTM_POINT
 70
0
 62
7
  6
CONTINUOUS
370
-3
390
F
  0
LAYER
  5
20C
100
AcDbSymbolTableRecord
100
AcDbLayerTableRecord
  2
DTM_QUILT
 70
0
 62
7
  6
CONTINUOUS
370
-3
390
F
  0
LAYER
  5
20D
100
AcDbSymbolTableRecord
100
AcDbLayerTableRecord
  2
GTOL
 70
0
 62
7
  6
CONTINUOUS
370
-3
390
F
  0
LAYER
  5
20E
100
AcDbSymbolTableRecord
100
AcDbLayerTableRecord
  2
NOTES
 70
0
 62
7
  6
CONTINUOUS
370
-3
390
F
  0
LAYER
  5
20F
100
AcDbSymbolTableRecord
100
AcDbLayerTableRecord
  2
REF_PLANS
 70
0
 62
7
  6
CONTINUOUS
370
-3
390
F
  0
LAYER
  5
210
100
AcDbSymbolTableRecord
100
AcDbLayerTableRecord
  2
XSEC_DATUMS
 70
0
 62
7
  6
CONTINUOUS
370
-3
390
F
  0
ENDTAB
  0
TABLE
  2
STYLE
  5
3
100
AcDbSymbolTable
 70
1
  0
STYLE
  5
11
100
AcDbSymbolTableRecord
100
AcDbTextStyleTableRecord
  2
STANDARD
 70
0
 40
0.0
 41
1.0
 50
0.0
 71
0
 42
0.2
  3
cgtime.ttf
  4

1001
ACAD
1000
CG Times
1071
34
  0
STYLE
  5
211
100
AcDbSymbolTableRecord
100
AcDbTextStyleTableRecord
  2
TEXTSTYLE_1
 70
0
 40
0.0
 41
0.8
 50
0.0
 71
0
 42
0.2
  3
gdt
  4

  0
STYLE
  5
212
100
AcDbSymbolTableRecord
100
AcDbTextStyleTableRecord
  2
TEXTSTYLE_2
 70
0
 40
0.0
 41
1.0
 50
0.0
 71
0
 42
0.2
  3
trium.ttf
  4

1001
ACAD
1000
CG Triumvirate
1071
34
  0
ENDTAB
  0
TABLE
  2
VIEW
  5
6
100
AcDbSymbolTable
 70
0
  0
ENDTAB
  0
TABLE
  2
UCS
  5
7
100
AcDbSymbolTable
 70
0
  0
ENDTAB
  0
TABLE
  2
APPID
  5
9
100
AcDbSymbolTable
 70
1
  0
APPID
  5
213
100
AcDbSymbolTableRecord
100
AcDbRegAppTableRecord
  2
ACAD
 70
0
  0
ENDTAB
  0
TABLE
  2
BLOCK_RECORD
  5
1
100
AcDbSymbolTable
 70
0
  0
BLOCK_RECORD
  5
214
100
AcDbSymbolTableRecord
100
AcDbBlockTableRecord
  2
*Model_Space
  0
BLOCK_RECORD
  5
215
100
AcDbSymbolTableRecord
100
AcDbBlockTableRecord
  2
*Paper_Space
  0
BLOCK_RECORD
  5
216
100
AcDbSymbolTableRecord
100
AcDbBlockTableRecord
  2
_FILLED
  0
BLOCK_RECORD
  5
217
100
AcDbSymbolTableRecord
100
AcDbBlockTableRecord
  2
*D0
  0
BLOCK_RECORD
  5
218
100
AcDbSymbolTableRecord
100
AcDbBlockTableRecord
  2
*D1
  0
BLOCK_RECORD
  5
219
100
AcDbSymbolTableRecord
100
AcDbBlockTableRecord
  2
*D2
  0
BLOCK_RECORD
  5
21A
100
AcDbSymbolTableRecord
100
AcDbBlockTableRecord
  2
*D3
  0
BLOCK_RECORD
  5
21B
100
AcDbSymbolTableRecord
100
AcDbBlockTableRecord
  2
*T1
  0
ENDTAB
  0
TABLE
  2
DIMSTYLE
  5
A
100
AcDbSymbolTable
 70
1
100
AcDbDimStyleTable
 71
0
  0
DIMSTYLE
105
21C
100
AcDbSymbolTableRecord
100
AcDbDimStyleTableRecord
  2
STANDARD
 70
0
  3

  4

 40
1.0
 41
3.5
 42
1.0
 43
0.38
 44
1.5
 45
0.0
 46
0.0
 47
0.001
 48
0.001
140
2.5
141
0.09
142
0.0
143
25.4
144
1.0
145
0.0
146
1.0
147
0.625
 71
1
 72
0
 73
1
 74
1
 75
0
 76
0
 77
0
 78
8
 79
2
170
0
171
2
172
0
173
0
174
0
175
0
176
0
177
0
178
0
270
2
179
3
271
3
272
3
273
2
274
2
275
0
280
0
281
0
282
0
283
1
284
8
285
0
286
0
287
3
288
0
340
11
278
44
341
216
342
216
343
216
344
216
  0
DIMSTYLE
105
21D
100
AcDbSymbolTableRecord
100
AcDbDimStyleTableRecord
  2
DIMSTYLE_1
 70
0
  3

  4

 40
1.0
 41
3.5
 42
1.0
 43
0.38
 44
1.5
 45
0.0
 46
0.0
 47
0.0
 48
0.0
140
2.5
141
0.09
142
0.0
143
25.4
144
1.0
145
0.0
146
1.0
147
1.25
 71
0
 72
0
 73
1
 74
1
 75
0
 76
0
 77
0
 78
8
 79
2
170
0
171
2
172
0
173
0
174
0
175
0
176
0
177
0
178
0
270
2
179
3
271
3
272
3
273
2
274
2
275
0
280
0
281
0
282
0
283
1
284
8
285
0
286
0
287
3
288
0
340
11
278
44
341
216
342
216
343
216
344
216
  0
ENDTAB
  0
ENDSEC
  0
SECTION
  2
BLOCKS
  0
BLOCK
  5
20
100
AcDbEntity
  8
0
100
AcDbBlockBegin
  2
*Model_Space
 70
0
 10
0.0
 20
0.0
 30
0.0
  3
*Model_Space
  1

  0
ENDBLK
  5
21
100
AcDbEntity
  8
0
100
AcDbBlockEnd
  0
BLOCK
  5
1C
100
AcDbEntity
  8
0
100
AcDbBlockBegin
  2
*Paper_Space
 70
0
 10
0.0
 20
0.0
 30
0.0
  3
*Paper_Space
  1

  0
ENDBLK
  5
1D
100
AcDbEntity
  8
0
100
AcDbBlockEnd
  0
BLOCK
  5
21E
100
AcDbEntity
  8
0
100
AcDbBlockBegin
  2
_FILLED
 70
64
 10
0.0
 20
0.0
  3
_FILLED
  1

  0
SOLID
  5
21F
100
AcDbEntity
  8
0
  6
BYBLOCK
 62
0
100
AcDbTrace
 10
0.0
 20
0.0
 11
-1.0
 21
0.2142857143
 12
-1.0
 22
-0.2142857143
 13
-1.0
 23
-0.2142857143
  0
ENDBLK
  5
220
100
AcDbEntity
  8
0
  6
BYBLOCK
 62
0
100
AcDbBlockEnd
  0
BLOCK
  5
221
100
AcDbEntity
  8
0
100
AcDbBlockBegin
 62
2
  6
CONTINUOUS
  2
*D0
 70
65
 10
0.0
 20
0.0
  3
*D0
  1

  0
TEXT
  5
222
100
AcDbEntity
  8
0
100
AcDbText
 62
2
  6
CONTINUOUS
 10
96.3480271483
 20
102.3101788265
  7
STANDARD
 40
2.5
  1
100
 72
5
 11
101.8052255919
 21
102.3101788265
100
AcDbText
  0
TEXT
  5
223
100
AcDbEntity
  8
0
100
AcDbText
 62
2
  6
CONTINUOUS
 10
101.8052255919
 20
102.3101788265
  7
STANDARD
 40
2.5
  1
mm
 72
5
 11
107.4764318176
 21
102.3101788265
100
AcDbText
  0
TEXT
  5
224
100
AcDbEntity
  8
0
100
AcDbText
 62
2
  6
CONTINUOUS
 10
100.1612567203
 20
98.5601788265
  7
STANDARD
 40
2.5
  1
4"
 72
5
 11
103.6632022456
 21
98.5601788265
100
AcDbText
  0
LINE
  5
225
100
AcDbEntity
  8
0
100
AcDbLine
 62
2
  6
CONTINUOUS
 10
92.0636746434
 20
153.5601788264
 11
103.4122294831
 21
153.5601788264
  0
LINE
  5
226
100
AcDbEntity
  8
0
100
AcDbLine
 62
2
  6
CONTINUOUS
 10
92.0636746434
 20
53.5601788266
 11
103.4122294828
 21
53.5601788265
  0
LINE
  5
227
100
AcDbEntity
  8
0
100
AcDbLine
 62
2
  6
CONTINUOUS
 10
101.9122294831
 20
153.5601788264
 11
101.9122294831
 21
106.0601788265
  0
LINE
  5
228
100
AcDbEntity
  8
0
100
AcDbLine
 62
2
  6
CONTINUOUS
 10
101.9122294828
 20
53.5601788265
 11
101.9122294831
 21
97.3101788265
  0
INSERT
  5
229
100
AcDbEntity
  8
0
100
AcDbBlockReference
 62
2
  6
CONTINUOUS
  2
_FILLED
 10
101.9122294831
 20
153.5601788264
 41
3.5
 42
3.5
 43
3.5
 50
90.0
  0
INSERT
  5
22A
100
AcDbEntity
  8
0
100
AcDbBlockReference
 62
2
  6
CONTINUOUS
  2
_FILLED
 10
101.9122294828
 20
53.5601788265
 41
3.5
 42
3.5
 43
3.5
 50
269.9999999997
  0
ENDBLK
  5
22B
100
AcDbEntity
  8
0
  6
BYBLOCK
 62
0
100
AcDbBlockEnd
  0
BLOCK
  5
22C
100
AcDbEntity
  8
0
100
AcDbBlockBegin
 62
2
  6
CONTINUOUS
  2
*D1
 70
65
 10
0.0
 20
0.0
  3
*D1
  1

  0
TEXT
  5
22D
100
AcDbEntity
  8
0
100
AcDbText
 62
2
  6
CONTINUOUS
 10
75.9090053828
 20
161.9712743947
  7
STANDARD
 40
2.5
  1
22
 72
5
 11
79.5471376785
 21
161.9712743947
100
AcDbText
  0
TEXT
  5
22E
100
AcDbEntity
  8
0
100
AcDbText
 62
2
  6
CONTINUOUS
 10
79.5471376785
 20
161.9712743947
  7
STANDARD
 40
2.5
  1
mm
 72
5
 11
85.2183439042
 21
161.9712743947
100
AcDbText
  0
TEXT
  5
22F
100
AcDbEntity
  8
0
100
AcDbText
 62
2
  6
CONTINUOUS
 10
77.2951921532
 20
158.2212743947
  7
STANDARD
 40
2.5
  1
7/8"
 72
5
 11
83.8321571338
 21
158.2212743947
100
AcDbText
  0
LINE
  5
230
100
AcDbEntity
  8
0
100
AcDbLine
 62
2
  6
CONTINUOUS
 10
69.5636746434
 20
153.8601788265
 11
69.5636746436
 21
164.7212743948
  0
LINE
  5
231
100
AcDbEntity
  8
0
100
AcDbLine
 62
2
  6
CONTINUOUS
 10
91.5636746433
 20
154.0601788264
 11
91.5636746435
 21
164.7212743945
  0
LINE
  5
232
100
AcDbEntity
  8
0
100
AcDbLine
 62
2
  6
CONTINUOUS
 10
69.5636746435
 20
163.2212743948
 11
74.6590053828
 21
163.2212743948
  0
LINE
  5
233
100
AcDbEntity
  8
0
100
AcDbLine
 62
2
  6
CONTINUOUS
 10
91.5636746435
 20
163.2212743945
 11
86.4683439042
 21
163.2212743948
  0
INSERT
  5
234
100
AcDbEntity
  8
0
100
AcDbBlockReference
 62
2
  6
CONTINUOUS
  2
_FILLED
 10
69.5636746435
 20
163.2212743948
 41
3.5
 42
3.5
 43
3.5
 50
180.0
  0
INSERT
  5
235
100
AcDbEntity
  8
0
100
AcDbBlockReference
 62
2
  6
CONTINUOUS
  2
_FILLED
 10
91.5636746435
 20
163.2212743945
 41
3.5
 42
3.5
 43
3.5
 50
359.999999996
  0
ENDBLK
  5
236
100
AcDbEntity
  8
0
  6
BYBLOCK
 62
0
100
AcDbBlockEnd
  0
BLOCK
  5
237
100
AcDbEntity
  8
0
100
AcDbBlockBegin
 62
2
  6
CONTINUOUS
  2
*D2
 70
65
 10
0.0
 20
0.0
  3
*D2
  1

  0
TEXT
  5
238
100
AcDbEntity
  8
0
100
AcDbText
 62
2
  6
CONTINUOUS
 10
56.8799566873
 20
150.2955595194
  7
STANDARD
 40
2.5
  1
8
 72
5
 11
58.6990228351
 21
150.2955595194
100
AcDbText
  0
TEXT
  5
239
100
AcDbEntity
  8
0
100
AcDbText
 62
2
  6
CONTINUOUS
 10
58.6990228351
 20
150.2955595194
  7
STANDARD
 40
2.5
  1
mm
 72
5
 11
64.3702290608
 21
150.2955595194
100
AcDbText
  0
TEXT
  5
23A
100
AcDbEntity
  8
0
100
AcDbText
 62
2
  6
CONTINUOUS
 10
57.3566103838
 20
146.5455595194
  7
STANDARD
 40
2.5
  1
1/4"
 72
5
 11
63.8935753643
 21
146.5455595194
100
AcDbText
  0
LINE
  5
23B
100
AcDbEntity
  8
0
100
AcDbLine
 62
2
  6
CONTINUOUS
 10
69.5636746433
 20
145.5601788265
 11
59.125092874
 21
145.5601788265
  0
LINE
  5
23C
100
AcDbEntity
  8
0
100
AcDbLine
 62
2
  6
CONTINUOUS
 10
69.2636746433
 20
153.5601788265
 11
59.125092874
 21
153.5601788265
  0
LINE
  5
23D
100
AcDbEntity
  8
0
100
AcDbLine
 62
2
  6
CONTINUOUS
 10
60.625092874
 20
145.5601788265
 11
60.625092874
 21
142.0601788265
  0
LINE
  5
23E
100
AcDbEntity
  8
0
100
AcDbLine
 62
2
  6
CONTINUOUS
 10
60.625092874
 20
142.0601788265
 11
60.625092874
 21
145.2955595194
  0
LINE
  5
23F
100
AcDbEntity
  8
0
100
AcDbLine
 62
2
  6
CONTINUOUS
 10
60.625092874
 20
145.2955595194
 11
60.625092874
 21
140.5601788265
  0
LINE
  5
240
100
AcDbEntity
  8
0
100
AcDbLine
 62
2
  6
CONTINUOUS
 10
60.625092874
 20
153.5601788265
 11
60.625092874
 21
158.5601788265
  0
INSERT
  5
241
100
AcDbEntity
  8
0
100
AcDbBlockReference
 62
2
  6
CONTINUOUS
  2
_FILLED
 10
60.625092874
 20
145.5601788265
 41
3.5
 42
3.5
 43
3.5
 50
90.0
  0
INSERT
  5
242
100
AcDbEntity
  8
0
100
AcDbBlockReference
 62
2
  6
CONTINUOUS
  2
_FILLED
 10
60.625092874
 20
153.5601788265
 41
3.5
 42
3.5
 43
3.5
 50
270.0
  0
ENDBLK
  5
243
100
AcDbEntity
  8
0
  6
BYBLOCK
 62
0
100
AcDbBlockEnd
  0
BLOCK
  5
244
100
AcDbEntity
  8
0
100
AcDbBlockBegin
 62
2
  6
CONTINUOUS
  2
*D3
 70
65
 10
0.0
 20
0.0
  3
*D3
  1

  0
TEXT
  5
245
100
AcDbEntity
  8
0
100
AcDbText
 62
2
  6
CONTINUOUS
 10
71.9090053827
 20
136.0171169917
  7
STANDARD
 40
2.5
  1
14
 72
5
 11
75.5471376784
 21
136.0171169917
100
AcDbText
  0
TEXT
  5
246
100
AcDbEntity
  8
0
100
AcDbText
 62
2
  6
CONTINUOUS
 10
75.5471376784
 20
136.0171169917
  7
STANDARD
 40
2.5
  1
mm
 72
5
 11
81.2183439041
 21
136.0171169917
100
AcDbText
  0
TEXT
  5
247
100
AcDbEntity
  8
0
100
AcDbText
 62
2
  6
CONTINUOUS
 10
73.2951921531
 20
132.2671169917
  7
STANDARD
 40
2.5
  1
1/2"
 72
5
 11
79.8321571336
 21
132.2671169917
100
AcDbText
  0
LINE
  5
248
100
AcDbEntity
  8
0
100
AcDbLine
 62
2
  6
CONTINUOUS
 10
69.5636746433
 20
145.5601788265
 11
69.5636746433
 21
135.7671169917
  0
LINE
  5
249
100
AcDbEntity
  8
0
100
AcDbLine
 62
2
  6
CONTINUOUS
 10
83.5636746434
 20
137.2671169917
 11
88.5636746434
 21
137.2671169917
  0
LINE
  5
24A
100
AcDbEntity
  8
0
100
AcDbLine
 62
2
  6
CONTINUOUS
 10
69.5636746433
 20
137.2671169917
 11
64.5636746433
 21
137.2671169917
  0
INSERT
  5
24B
100
AcDbEntity
  8
0
100
AcDbBlockReference
 62
2
  6
CONTINUOUS
  2
_FILLED
 10
83.5636746434
 20
137.2671169917
 41
3.5
 42
3.5
 43
3.5
 50
179.9999999999
  0
INSERT
  5
24C
100
AcDbEntity
  8
0
100
AcDbBlockReference
 62
2
  6
CONTINUOUS
  2
_FILLED
 10
69.5636746433
 20
137.2671169917
 41
3.5
 42
3.5
 43
3.5
 50
359.9999999999
  0
ENDBLK
  5
24D
100
AcDbEntity
  8
0
  6
BYBLOCK
 62
0
100
AcDbBlockEnd
  0
BLOCK
  5
24E
100
AcDbEntity
  8
0
100
AcDbBlockBegin
  2
*T1
 70
1
 10
0.0
 20
0.0
  3
*T1
  1

  0
LINE
  5
24F
100
AcDbEntity
  8
0
100
AcDbLine
 62
7
  6
CONTINUOUS
 10
0.0
 20
0.0
 11
148.0
 21
0.0
  0
LINE
  5
250
100
AcDbEntity
  8
0
100
AcDbLine
 62
7
  6
CONTINUOUS
 10
0.0
 20
0.0
 11
0.0
 21
-43.0
  0
LINE
  5
251
100
AcDbEntity
  8
0
100
AcDbLine
 62
7
  6
CONTINUOUS
 10
45.0
 20
-20.0
 11
148.0
 21
-20.0
  0
LINE
  5
252
100
AcDbEntity
  8
0
100
AcDbLine
 62
7
  6
CONTINUOUS
 10
45.0
 20
-28.0
 11
148.0
 21
-28.0
  0
LINE
  5
253
100
AcDbEntity
  8
0
100
AcDbLine
 62
7
  6
CONTINUOUS
 10
0.0
 20
-43.0
 11
148.0
 21
-43.0
  0
LINE
  5
254
100
AcDbEntity
  8
0
100
AcDbLine
 62
7
  6
CONTINUOUS
 10
45.0
 20
0.0
 11
45.0
 21
-43.0
  0
LINE
  5
255
100
AcDbEntity
  8
0
100
AcDbLine
 62
7
  6
CONTINUOUS
 10
143.0
 20
0.0
 11
143.0
 21
-20.0
  0
LINE
  5
256
100
AcDbEntity
  8
0
100
AcDbLine
 62
7
  6
CONTINUOUS
 10
148.0
 20
0.0
 11
148.0
 21
-43.0
  0
TEXT
  5
257
100
AcDbEntity
  8
0
100
AcDbText
 62
7
  6
CONTINUOUS
 10
8.9659749243
 20
-9.175
  7
STANDARD
 40
8.0
  1
O
 72
5
 11
17.370644185
 21
-9.175
100
AcDbText
  0
TEXT
  5
258
100
AcDbEntity
  8
0
100
AcDbText
 62
7
  6
CONTINUOUS
 10
17.370644185
 20
-9.175
  7
STANDARD
 40
5.5
  1
RAC
 72
5
 11
33.9562472979
 21
-9.175
100
AcDbText
  0
TEXT
  5
259
100
AcDbEntity
  8
0
100
AcDbText
 62
7
  6
CONTINUOUS
 10
33.9562472979
 20
-4.425
  7
TEXTSTYLE_2
 40
3.0
  1
®
 72
5
 11
36.0340250757
 21
-4.425
100
AcDbText
  0
TEXT
  5
25A
100
AcDbEntity
  8
0
100
AcDbText
 62
7
  6
CONTINUOUS
 10
9.5323389537
 20
-13.825
  7
TEXTSTYLE_2
 40
3.0
  1
D  E  C  O  R
 72
5
 11
34.3878945093
 21
-13.825
100
AcDbText
  0
TEXT
  5
25B
100
AcDbEntity
  8
0
100
AcDbText
 62
7
  6
CONTINUOUS
 10
34.3878945093
 20
-13.825
  7
STANDARD
 40
2.5
  1
 
 72
5
 11
35.4676610463
 21
-13.825
100
AcDbText
  0
TEXT
  5
25C
100
AcDbEntity
  8
0
100
AcDbText
 62
7
  6
CONTINUOUS
 10
54.424270428
 20
-4.6
  7
STANDARD
 40
2.7
  1
Part name:
 72
5
 11
71.9375
 21
-4.6
100
AcDbText
  0
TEXT
  5
25D
100
AcDbEntity
  8
0
100
AcDbText
 62
7
  6
CONTINUOUS
 10
50.6211575875
 20
-11.35
  7
STANDARD
 40
2.7
  1
Designed by:
 72
5
 11
71.9375
 21
-11.35
100
AcDbText
  0
TEXT
  5
25E
100
AcDbEntity
  8
0
100
AcDbText
 62
7
  6
CONTINUOUS
 10
50.6211575875
 20
-18.1
  7
STANDARD
 40
2.7
  1
Designed on:
 72
5
 11
71.9375
 21
-18.1
100
AcDbText
  0
TEXT
  5
25F
100
AcDbEntity
  8
0
100
AcDbText
 62
2
  6
CONTINUOUS
 10
74.0625
 20
-4.6
  7
STANDARD
 40
2.7
  1
SX171
 72
5
 11
84.9045233463
 21
-4.6
100
AcDbText
  0
TEXT
  5
260
100
AcDbEntity
  8
0
100
AcDbText
 62
2
  6
CONTINUOUS
 10
74.0625
 20
-11.35
  7
STANDARD
 40
2.7
  1
ORAC
 72
5
 11
85.0410992218
 21
-11.35
100
AcDbText
  0
TEXT
  5
261
100
AcDbEntity
  8
0
100
AcDbText
 62
2
  6
CONTINUOUS
 10
74.0625
 20
-18.1
  7
STANDARD
 40
2.7
  1
02-May-2022
 72
5
 11
95.7465466926
 21
-18.1
100
AcDbText
  0
TEXT
  5
262
100
AcDbEntity
  8
0
100
AcDbText
 62
2
  6
CONTINUOUS
 10
95.7465466926
 20
-18.1
  7
STANDARD
 40
2.7
  1
 
 72
5
 11
96.9126945525
 21
-18.1
100
AcDbText
  0
TEXT
  5
263
100
AcDbEntity
  8
0
100
AcDbText
 62
2
  6
CONTINUOUS
 10
146.5625
 20
-15.9620622568
  7
STANDARD
 40
1.5
  1
Version: 
 50
90.0
 72
5
 11
146.5625
 21
-7.5982490272
100
AcDbText
  0
TEXT
  5
264
100
AcDbEntity
  8
0
100
AcDbText
 62
2
  6
CONTINUOUS
 10
146.5625
 20
-7.5982490272
  7
STANDARD
 40
1.5
  1
1.0
 50
90.0
 72
5
 11
146.5625
 21
-4.6857976654
100
AcDbText
  0
TEXT
  5
265
100
AcDbEntity
  8
0
100
AcDbText
 62
2
  6
CONTINUOUS
 10
146.5625
 20
-4.6857976654
  7
STANDARD
 40
1.5
  1
 
 50
90.0
 72
5
 11
146.5625
 21
-4.0379377432
100
AcDbText
  0
TEXT
  5
266
100
AcDbEntity
  8
0
100
AcDbText
 62
7
  6
CONTINUOUS
 10
10.5836575875
 20
-22.75
  7
STANDARD
 40
2.5
  1
Biekorfstraat 32
 72
5
 11
34.4163424125
 21
-22.75
100
AcDbText
  0
TEXT
  5
267
100
AcDbEntity
  8
0
100
AcDbText
 62
7
  6
CONTINUOUS
 10
3.560311284
 20
-26.5
  7
STANDARD
 40
2.5
  1
8400 Oostende - Belgium
 72
5
 11
41.439688716
 21
-26.5
100
AcDbText
  0
TEXT
  5
268
100
AcDbEntity
  8
0
100
AcDbText
 62
7
  6
CONTINUOUS
 10
3.9688715953
 20
-30.25
  7
STANDARD
 40
2.5
  1
Tel  +32 (0)59 80 32 52
 72
5
 11
41.0311284047
 21
-30.25
100
AcDbText
  0
TEXT
  5
269
100
AcDbEntity
  8
0
100
AcDbText
 62
7
  6
CONTINUOUS
 10
6.9017509728
 20
-34.0
  7
STANDARD
 40
2.5
  1
www.oracdecor.com
 72
5
 11
38.0982490272
 21
-34.0
100
AcDbText
  0
TEXT
  5
26A
100
AcDbEntity
  8
0
100
AcDbText
 62
7
  6
CONTINUOUS
 10
6.9017509728
 20
-37.75
  7
STANDARD
 40
2.5
  1
info@oracdecor.com
 72
5
 11
38.0982490272
 21
-37.75
100
AcDbText
  0
TEXT
  5
26B
100
AcDbEntity
  8
0
100
AcDbText
 62
7
  6
CONTINUOUS
 10
46.0625
 20
-23.375
  7
STANDARD
 40
2.5
  1
Unless otherwise specified: all dimensions are in millimeters 
 72
5
 11
137.5605544747
 21
-23.375
100
AcDbText
  0
TEXT
  5
26C
100
AcDbEntity
  8
0
100
AcDbText
 62
7
  6
CONTINUOUS
 10
46.0625
 20
-27.125
  7
STANDARD
 40
2.5
  1
and inches, scale 1:1, length 2 meters
 72
5
 11
102.3660019455
 21
-27.125
100
AcDbText
  0
TEXT
  5
26D
100
AcDbEntity
  8
0
100
AcDbText
 62
7
  6
CONTINUOUS
 10
46.0625
 20
-31.81
  7
STANDARD
 40
1.8
  1
All information in this document is Orac's exclusive property.  It may in no case 
 72
5
 11
133.5901264591
 21
-31.81
100
AcDbText
  0
TEXT
  5
26E
100
AcDbEntity
  8
0
100
AcDbText
 62
7
  6
CONTINUOUS
 10
46.0625
 20
-34.87
  7
STANDARD
 40
1.8
  1
be reproduced, even partly, be communicated to a third party or used for any 
 72
5
 11
129.8990758755
 21
-34.87
100
AcDbText
  0
TEXT
  5
26F
100
AcDbEntity
  8
0
100
AcDbText
 62
7
  6
CONTINUOUS
 10
46.0625
 20
-37.93
  7
STANDARD
 40
1.8
  1
possible purpose without ORAC's express written permission. Further legal 
 72
5
 11
128.2321498054
 21
-37.93
100
AcDbText
  0
TEXT
  5
270
100
AcDbEntity
  8
0
100
AcDbText
 62
7
  6
CONTINUOUS
 10
46.0625
 20
-40.99
  7
STANDARD
 40
1.8
  1
information can be found at https://www.oracdecor.com/en/general-sales-conditions
 72
5
 11
136.4547178988
 21
-40.99
100
AcDbText
  0
ENDBLK
  5
271
100
AcDbEntity
  8
0
  6
BYBLOCK
 62
0
100
AcDbBlockEnd
  0
ENDSEC
  0
SECTION
  2
ENTITIES
  0
VIEWPORT
  5
272
100
AcDbEntity
 67
1
  8
0
100
AcDbViewport
 10
148.5
 20
105.0
 30
0.0
 40
297.0
 41
210.0
 68
1
 69
1
 12
148.5
 22
105.0
 13
0.0
 23
0.0
 14
10.0
 24
10.0
 15
10.0
 25
10.0
 16
0.0
 26
0.0
 36
1.0
 17
0.0
 27
0.0
 37
0.0
 42
50.0
 43
0.0
 44
0.0
 45
210.0
 50
0.0
 51
0.0
 72
100
 90
32864
  1

281
0
 71
1
 74
0
110
0.0
120
0.0
130
0.0
111
1.0
121
0.0
131
0.0
112
0.0
122
1.0
132
0.0
 79
0
146
0.0
  0
DIMENSION
  5
273
100
AcDbEntity
 67
1
  8
0
100
AcDbDimension
 62
2
  6
CONTINUOUS
  2
*D0
 10
101.9122294828
 20
53.5601788265
 11
101.9122294829
 21
101.6851788265
 70
160
 71
2
 72
2
 41
0.9
 42
99.9999999999
  1
<>mm\P4"
  3
DIMSTYLE_1
100
AcDbAlignedDimension
 13
91.0636746434
 23
153.5601788264
 14
91.0636746434
 24
53.5601788266
 50
269.9999999998
100
AcDbRotatedDimension
  0
DIMENSION
  5
274
100
AcDbEntity
 67
1
  8
0
100
AcDbDimension
 62
2
  6
CONTINUOUS
  2
*D1
 10
91.5636746435
 20
163.2212743945
 11
80.5636746435
 21
161.3462743947
 70
160
 71
2
 72
2
 41
0.9
 42
21.9999999999
  1
<>mm\P7/8"
  3
DIMSTYLE_1
100
AcDbAlignedDimension
 13
69.5636746434
 23
152.8601788265
 14
91.5636746433
 24
153.0601788264
 50
359.9999999991
100
AcDbRotatedDimension
  0
DIMENSION
  5
275
100
AcDbEntity
 67
1
  8
0
100
AcDbDimension
 62
2
  6
CONTINUOUS
  2
*D2
 10
60.625092874
 20
153.5601788265
 11
60.625092874
 21
149.6705595194
 70
160
 71
2
 72
2
 41
0.9
 42
8.0
  1
<>mm\P1/4"
  3
DIMSTYLE_1
100
AcDbAlignedDimension
 13
70.5636746433
 23
145.5601788265
 14
70.2636746433
 24
153.5601788265
 50
90.0
100
AcDbRotatedDimension
  0
DIMENSION
  5
276
100
AcDbEntity
 67
1
  8
0
100
AcDbDimension
 62
2
  6
CONTINUOUS
  2
*D3
 10
69.5636746433
 20
137.2671169917
 11
76.5636746434
 21
135.3921169917
 70
160
 71
2
 72
2
 41
0.9
 42
14.0
  1
<>mm\P1/2"
  3
DIMSTYLE_1
100
AcDbAlignedDimension
 13
83.5636746434
 23
143.5601788265
 14
69.5636746433
 24
146.5601788265
 50
179.9999999999
100
AcDbRotatedDimension
  0
ACAD_TABLE
  5
277
100
AcDbEntity
 67
1
  8
0
 62
2
  6
CONTINUOUS
100
AcDbBlockReference
  2
*T1
 10
144.0
 20
48.0
 30
0.0
100
AcDbTable
342
       2E3
343
21B
 11
1.0
 21
0.0
 31
0.0
 90
22
 91
4
 92
4
 93
0
 94
0
 95
0
 96
0
141
15.0
141
5.0
141
8.0
141
15.0
142
45.0
142
28.0
142
70.0
142
5.0
171
1
172
0
173
0
174
0
175
1
176
1
 91
41
178
0
145
0.0
301
CELL_VALUE
 90
4
  1
\A1;O\H5.5;RAC\fCG Triumvirate;\H3.0;\S®^ ;\PD  E  C  O  R\fCG Times;\H2.5; 
304
ACVALUE_END
170
5
140
8.0
 64
7
171
1
172
0
173
0
174
0
175
1
176
2
 91
41
178
0
145
0.0
301
CELL_VALUE
 90
4
  1
Part name:\PDesigned by:\PDesigned on:
304
ACVALUE_END
170
6
140
2.7
 64
7
171
1
172
0
173
0
174
0
175
1
176
2
 91
33
178
0
145
0.0
301
CELL_VALUE
 90
4
  1
SX171\PORAC\P02-May-2022 
304
ACVALUE_END
170
4
140
2.7
171
1
172
0
173
0
174
0
175
1
176
2
 91
33
178
0
145
1.5707963268
301
CELL_VALUE
 90
4
  1
Version: 1.0 
304
ACVALUE_END
170
6
140
1.5
171
1
172
0
173
0
174
0
175
1
176
3
 91
41
178
0
145
0.0
301
CELL_VALUE
 90
4
  1
Biekorfstraat 32\P8400 Oostende - Belgium\PTel  +32 (0)59 80 32 52\Pwww.oracdecor.com\Pinfo@oracdecor.com
304
ACVALUE_END
170
5
140
2.5
 64
7
171
1
172
0
173
1
174
0
175
1
176
1
 91
1
178
0
145
0.0
170
1
171
1
172
0
173
1
174
0
175
1
176
1
 91
1
178
0
145
0.0
170
1
171
1
172
0
173
1
174
0
175
1
176
1
 91
1
178
0
145
0.0
170
1
171
1
172
0
173
1
174
0
175
1
176
1
 91
1
178
0
145
0.0
170
1
171
1
172
0
173
0
174
0
175
3
176
1
 91
41
178
0
145
0.0
301
CELL_VALUE
 90
4
  1
Unless otherwise specified: all dimensions are in millimeters \Pand inches, scale 1:1, length 2 meters
304
ACVALUE_END
170
4
140
2.5
 64
7
171
1
172
0
173
1
174
0
175
1
176
1
 91
1
178
0
145
0.0
170
1
171
1
172
0
173
1
174
0
175
1
176
1
 91
1
178
0
145
0.0
170
1
171
1
172
0
173
1
174
0
175
1
176
1
 91
1
178
0
145
0.0
170
1
171
1
172
0
173
0
174
0
175
3
176
1
 91
41
178
0
145
0.0
301
CELL_VALUE
 90
4
  2
All information in this document is Orac's exclusive property.  It may in no case \Pbe reproduced, even partly, be communicated to a third party or used for any \Ppossible purpose without ORAC's express written permission. Further legal \Pinformation
  1
 can be found at https://www.oracdecor.com/en/general-sales-conditions
304
ACVALUE_END
170
4
140
1.8
 64
7
171
1
172
0
173
1
174
0
175
1
176
1
 91
1
178
0
145
0.0
170
1
171
1
172
0
173
1
174
0
175
1
176
1
 91
1
178
0
145
0.0
170
1
  0
LINE
  5
278
100
AcDbEntity
 67
1
  8
0
100
AcDbLine
 62
5
  6
CONTINUOUS
 10
0.0
 20
0.0
 11
0.0
 21
210.0
  0
LINE
  5
279
100
AcDbEntity
 67
1
  8
0
100
AcDbLine
 62
7
  6
CONTINUOUS
 10
5.0
 20
5.0
 11
5.0
 21
195.0
  0
LINE
  5
27A
100
AcDbEntity
 67
1
  8
0
100
AcDbLine
 62
5
  6
CONTINUOUS
 10
0.0
 20
0.0
 11
297.0
 21
0.0
  0
LINE
  5
27B
100
AcDbEntity
 67
1
  8
0
100
AcDbLine
 62
7
  6
CONTINUOUS
 10
5.0
 20
5.0
 11
292.0
 21
5.0
  0
LINE
  5
27C
100
AcDbEntity
 67
1
  8
0
100
AcDbLine
 62
4
  6
CONTINUOUS
 10
148.5
 20
195.0
 11
148.5
 21
205.0
  0
LINE
  5
27D
100
AcDbEntity
 67
1
  8
0
100
AcDbLine
 62
7
  6
CONTINUOUS
 10
5.0
 20
195.0
 11
292.0
 21
195.0
  0
LINE
  5
27E
100
AcDbEntity
 67
1
  8
0
100
AcDbLine
 62
5
  6
CONTINUOUS
 10
0.0
 20
210.0
 11
297.0
 21
210.0
  0
LINE
  5
27F
100
AcDbEntity
 67
1
  8
0
100
AcDbLine
 62
7
  6
CONTINUOUS
 10
292.0
 20
5.0
 11
292.0
 21
195.0
  0
LINE
  5
280
100
AcDbEntity
 67
1
  8
0
100
AcDbLine
 62
5
  6
CONTINUOUS
 10
297.0
 20
0.0
 11
297.0
 21
210.0
  0
LINE
  5
281
100
AcDbEntity
 67
1
  8
0
100
AcDbLine
 62
7
  6
CONTINUOUS
 10
220.2429906782
 20
52.8987611771
 11
213.4440263511
 21
52.9008323651
  0
LINE
  5
282
100
AcDbEntity
 67
1
  8
DTM_AXIS
100
AcDbLine
 62
7
  6
CONTINUOUS
 10
233.8560344445
 20
187.5844818493
 11
198.9512215699
 21
152.6849851468
  0
LINE
  5
283
100
AcDbEntity
 67
1
  8
DTM_AXIS
100
AcDbLine
 62
7
  6
CONTINUOUS
 10
234.3509714935
 20
187.7893627942
 11
199.4461586189
 21
152.8898660916
  0
LINE
  5
284
100
AcDbEntity
 67
1
  8
0
100
AcDbLine
 62
7
  6
CONTINUOUS
 10
199.0976554352
 20
148.5192473648
 11
198.8177776481
 21
147.819638157
  0
LINE
  5
285
100
AcDbEntity
 67
1
  8
0
100
AcDbLine
 62
7
  6
CONTINUOUS
 10
212.8156453803
 20
63.9705293217
 11
213.0955231674
 21
63.270749594
  0
LINE
  5
286
100
AcDbEntity
 67
1
  8
0
100
AcDbLine
 62
7
  6
CONTINUOUS
 10
212.8156453803
 20
73.9690062733
 11
213.0955231674
 21
73.2692265456
  0
LINE
  5
287
100
AcDbEntity
 67
1
  8
0
100
AcDbLine
 62
7
  6
CONTINUOUS
 10
198.7462652323
 20
145.8911454361
 11
198.7462652323
 21
147.4483258303
  0
LINE
  5
288
100
AcDbEntity
 67
1
  8
0
100
AcDbLine
 62
7
  6
CONTINUOUS
 10
198.7462652323
 20
150.3330512128
 11
198.7462652324
 21
152.1901859156
  0
LINE
  5
289
100
AcDbEntity
 67
1
  8
DTM_AXIS
100
AcDbLine
 62
7
  6
CONTINUOUS
 10
220.2429906782
 20
152.8835306926
 11
255.1478035528
 21
187.7830273952
  0
LINE
  5
28A
100
AcDbEntity
 67
1
  8
DTM_AXIS
100
AcDbLine
 62
7
  6
CONTINUOUS
 10
255.6477274002
 20
187.2829512542
 11
220.7429145259
 21
152.383454552
  0
LINE
  5
28B
100
AcDbEntity
 67
1
  8
0
100
AcDbLine
 62
7
  6
CONTINUOUS
 10
212.8156453803
 20
83.9674832248
 11
213.0955231674
 21
83.2677034971
  0
LINE
  5
28C
100
AcDbEntity
 67
1
  8
0
100
AcDbLine
 62
7
  6
CONTINUOUS
 10
212.8156453803
 20
93.9659601765
 11
213.0955231674
 21
93.2661804487
  0
LINE
  5
28D
100
AcDbEntity
 67
1
  8
0
100
AcDbLine
 62
7
  6
CONTINUOUS
 10
212.7441329645
 20
53.6009389623
 11
212.7441329645
 21
61.4571598359
  0
LINE
  5
28E
100
AcDbEntity
 67
1
  8
0
100
AcDbLine
 62
7
  6
CONTINUOUS
 10
212.7441329645
 20
64.3418852186
 11
212.7441329645
 21
71.4556367875
  0
LINE
  5
28F
100
AcDbEntity
 67
1
  8
0
100
AcDbLine
 62
7
  6
CONTINUOUS
 10
212.7441329645
 20
74.3403621701
 11
212.7441329645
 21
81.4541137391
  0
LINE
  5
290
100
AcDbEntity
 67
1
  8
0
100
AcDbLine
 62
7
  6
CONTINUOUS
 10
212.7441329645
 20
84.3388391217
 11
212.7441329645
 21
91.4525906907
  0
LINE
  5
291
100
AcDbEntity
 67
1
  8
0
100
AcDbLine
 62
7
  6
CONTINUOUS
 10
212.7441329645
 20
94.3373160732
 11
212.7441329645
 21
142.8873381398
  0
LINE
  5
292
100
AcDbEntity
 67
1
  8
0
100
AcDbLine
 62
7
  6
CONTINUOUS
 10
198.8177776481
 20
149.9616953161
 11
199.0976554352
 21
149.2619155883
  0
LINE
  5
293
100
AcDbEntity
 67
1
  8
0
100
AcDbLine
 62
7
  6
CONTINUOUS
 10
220.7429145258
 20
53.3985327313
 11
220.7429145257
 21
152.3834545518
  0
LINE
  5
294
100
AcDbEntity
 67
1
  8
0
100
AcDbLine
 62
7
  6
CONTINUOUS
 10
213.0955231674
 20
92.5235122252
 11
212.8156453802
 21
91.8239030174
  0
LINE
  5
295
100
AcDbEntity
 67
1
  8
0
100
AcDbLine
 62
7
  6
CONTINUOUS
 10
213.0955231674
 20
82.5250352736
 11
212.8156453802
 21
81.8254260658
  0
LINE
  5
296
100
AcDbEntity
 67
1
  8
0
100
AcDbLine
 62
7
  6
CONTINUOUS
 10
213.0955231674
 20
72.5265583221
 11
212.8156453803
 21
71.8269491143
  0
LINE
  5
297
100
AcDbEntity
 67
1
  8
0
100
AcDbLine
 62
7
  6
CONTINUOUS
 10
213.0955231674
 20
62.5280813705
 11
212.8156453803
 21
61.8284721627
  0
LINE
  5
298
100
AcDbEntity
 67
1
  8
0
100
AcDbLine
 62
7
  6
CONTINUOUS
 10
210.7444375742
 20
144.8876427031
 11
199.7461129275
 21
144.8909931545
  0
LINE
  5
299
100
AcDbEntity
 67
1
  8
DTM_AXIS
100
AcDbLine
 62
7
  6
CONTINUOUS
 10
255.6477274003
 20
88.2980294338
 11
255.6477274003
 21
187.2829512543
  0
LINE
  5
29A
100
AcDbEntity
 67
1
  8
0
100
AcDbLine
 62
7
  6
CONTINUOUS
 10
220.2429906782
 20
152.8835306926
 11
199.4461586189
 21
152.8898660917
  0
LINE
  5
29B
100
AcDbEntity
 67
1
  8
DTM_AXIS
100
AcDbLine
 62
7
  6
CONTINUOUS
 10
220.7429145257
 20
53.3985327314
 11
255.6477274003
 21
88.2980294339
  0
LINE
  5
29C
100
AcDbEntity
 67
1
  8
DTM_AXIS
100
AcDbLine
 62
7
  6
CONTINUOUS
 10
220.5965171418
 20
53.045104709
 11
255.5013300163
 21
87.9446014115
  0
LINE
  5
29D
100
AcDbEntity
 67
1
  8
DTM_AXIS
100
AcDbLine
 62
7
  6
CONTINUOUS
 10
255.1478035528
 20
187.7830273951
 11
234.3509714935
 21
187.7893627942
  0
LINE
  5
29E
100
AcDbEntity
 67
1
  8
0
100
AcDbLine
 62
7
  6
CONTINUOUS
 10
91.0636746434
 20
53.5601788266
 11
84.2636746433
 21
53.5601788265
  0
LINE
  5
29F
100
AcDbEntity
 67
1
  8
0
100
AcDbLine
 62
7
  6
CONTINUOUS
 10
69.9151183728
 20
149.1887881501
 11
69.6351979524
 21
148.4889870993
  0
LINE
  5
2A0
100
AcDbEntity
 67
1
  8
0
100
AcDbLine
 62
7
  6
CONTINUOUS
 10
69.5636746433
 20
146.5601788265
 11
69.5636746433
 21
148.117596423
  0
LINE
  5
2A1
100
AcDbEntity
 67
1
  8
0
100
AcDbLine
 62
7
  6
CONTINUOUS
 10
69.5636746433
 20
151.0027612301
 11
69.5636746434
 21
152.8601788265
  0
LINE
  5
2A2
100
AcDbEntity
 67
1
  8
0
100
AcDbLine
 62
7
  6
CONTINUOUS
 10
83.6351979524
 20
64.6313705537
 11
83.9151183728
 21
63.9315695029
  0
LINE
  5
2A3
100
AcDbEntity
 67
1
  8
0
100
AcDbLine
 62
7
  6
CONTINUOUS
 10
83.6351979524
 20
74.6313705537
 11
83.9151183728
 21
73.9315695029
  0
LINE
  5
2A4
100
AcDbEntity
 67
1
  8
0
100
AcDbLine
 62
7
  6
CONTINUOUS
 10
83.6351979524
 20
84.6313705537
 11
83.9151183728
 21
83.9315695028
  0
LINE
  5
2A5
100
AcDbEntity
 67
1
  8
0
100
AcDbLine
 62
7
  6
CONTINUOUS
 10
83.6351979525
 20
94.6313705537
 11
83.9151183728
 21
93.9315695029
  0
LINE
  5
2A6
100
AcDbEntity
 67
1
  8
0
100
AcDbLine
 62
7
  6
CONTINUOUS
 10
83.5636746433
 20
54.2601788265
 11
83.5636746433
 21
62.1175964229
  0
LINE
  5
2A7
100
AcDbEntity
 67
1
  8
0
100
AcDbLine
 62
7
  6
CONTINUOUS
 10
83.5636746434
 20
65.0027612301
 11
83.5636746433
 21
72.1175964229
  0
LINE
  5
2A8
100
AcDbEntity
 67
1
  8
0
100
AcDbLine
 62
7
  6
CONTINUOUS
 10
83.5636746434
 20
75.0027612301
 11
83.5636746433
 21
82.1175964229
  0
LINE
  5
2A9
100
AcDbEntity
 67
1
  8
0
100
AcDbLine
 62
7
  6
CONTINUOUS
 10
83.5636746434
 20
85.0027612301
 11
83.5636746433
 21
92.117596423
  0
LINE
  5
2AA
100
AcDbEntity
 67
1
  8
0
100
AcDbLine
 62
7
  6
CONTINUOUS
 10
83.5636746433
 20
95.0027612301
 11
83.5636746434
 21
143.5601788265
  0
LINE
  5
2AB
100
AcDbEntity
 67
1
  8
0
100
AcDbLine
 62
7
  6
CONTINUOUS
 10
83.9151183728
 20
93.1887881501
 11
83.6351979524
 21
92.4889870993
  0
LINE
  5
2AC
100
AcDbEntity
 67
1
  8
0
100
AcDbLine
 62
7
  6
CONTINUOUS
 10
83.9151183728
 20
83.1887881501
 11
83.6351979524
 21
82.4889870993
  0
LINE
  5
2AD
100
AcDbEntity
 67
1
  8
0
100
AcDbLine
 62
7
  6
CONTINUOUS
 10
69.6351979524
 20
150.6313705537
 11
69.9151183728
 21
149.9315695029
  0
LINE
  5
2AE
100
AcDbEntity
 67
1
  8
0
100
AcDbLine
 62
7
  6
CONTINUOUS
 10
91.5636746433
 20
54.0601788265
 11
91.5636746433
 21
153.0601788264
  0
LINE
  5
2AF
100
AcDbEntity
 67
1
  8
0
100
AcDbLine
 62
7
  6
CONTINUOUS
 10
83.9151183728
 20
73.1887881502
 11
83.6351979525
 21
72.4889870993
  0
LINE
  5
2B0
100
AcDbEntity
 67
1
  8
0
100
AcDbLine
 62
7
  6
CONTINUOUS
 10
83.9151183728
 20
63.1887881501
 11
83.6351979525
 21
62.4889870993
  0
LINE
  5
2B1
100
AcDbEntity
 67
1
  8
0
100
AcDbLine
 62
7
  6
CONTINUOUS
 10
81.5636746433
 20
145.5601788265
 11
70.5636746433
 21
145.5601788265
  0
LINE
  5
2B2
100
AcDbEntity
 67
1
  8
0
100
AcDbLine
 62
7
  6
CONTINUOUS
 10
91.0636746434
 20
153.5601788264
 11
70.2636746433
 21
153.5601788265
  0
ARC
  5
2B3
100
AcDbEntity
 67
1
  8
0
100
AcDbCircle
 62
7
  6
CONTINUOUS
 10
210.7436857805
 20
142.8871956552
 40
2.0004534365
100
AcDbArc
 50
0.0040809702
 51
89.9784675106
  0
ARC
  5
2B4
100
AcDbEntity
 67
1
  8
0
100
AcDbCircle
 62
7
  6
CONTINUOUS
 10
199.7464793042
 20
145.8912071611
 40
1.0002154544
100
AcDbArc
 50
180.0035358275
 51
269.9790126508
  0
ARC
  5
2B5
100
AcDbEntity
 67
1
  8
0
100
AcDbCircle
 62
7
  6
CONTINUOUS
 10
198.1694615093
 20
148.8905814766
 40
0.9997164531
100
AcDbArc
 50
338.1955817817
 51
21.8044182168
  0
ARC
  5
2B6
100
AcDbEntity
 67
1
  8
0
100
AcDbCircle
 62
7
  6
CONTINUOUS
 10
212.1673292415
 20
92.8948463369
 40
0.9997164531
100
AcDbArc
 50
338.1955817819
 51
21.8044182186
  0
ARC
  5
2B7
100
AcDbEntity
 67
1
  8
0
100
AcDbCircle
 62
7
  6
CONTINUOUS
 10
212.1673292415
 20
62.8994154822
 40
0.9997164531
100
AcDbArc
 50
338.1955817815
 51
21.804418218
  0
ARC
  5
2B8
100
AcDbEntity
 67
1
  8
0
100
AcDbCircle
 62
7
  6
CONTINUOUS
 10
212.1673292425
 20
72.8978924338
 40
0.9997164521
100
AcDbArc
 50
338.1955817613
 51
21.8044182399
  0
ARC
  5
2B9
100
AcDbEntity
 67
1
  8
0
100
AcDbCircle
 62
7
  6
CONTINUOUS
 10
212.1673292425
 20
82.8963693854
 40
0.9997164521
100
AcDbArc
 50
338.1955817594
 51
21.8044182382
  0
ARC
  5
2BA
100
AcDbEntity
 67
1
  8
0
100
AcDbCircle
 62
7
  6
CONTINUOUS
 10
213.444317804
 20
53.6010171483
 40
0.7001887636
100
AcDbArc
 50
180.0063979235
 51
269.9761505535
  0
ARC
  5
2BB
100
AcDbEntity
 67
1
  8
DTM_AXIS
100
AcDbCircle
 62
7
  6
CONTINUOUS
 10
234.3506639992
 20
187.0899590209
 40
0.6994038409
100
AcDbArc
 50
89.9748098012
 51
135.0062187782
  0
ARC
  5
2BC
100
AcDbEntity
 67
1
  8
0
100
AcDbCircle
 62
7
  6
CONTINUOUS
 10
199.4456688809
 20
152.1902803651
 40
0.699403655
100
AcDbArc
 50
89.9748098012
 51
180.0077373863
  0
ARC
  5
2BD
100
AcDbEntity
 67
1
  8
DTM_AXIS
100
AcDbCircle
 62
7
  6
CONTINUOUS
 10
255.1475955078
 20
187.2828955427
 40
0.5001347005
100
AcDbArc
 50
0.0063823874
 51
89.976166081
  0
ARC
  5
2BE
100
AcDbEntity
 67
1
  8
0
100
AcDbCircle
 62
7
  6
CONTINUOUS
 10
220.2427826332
 20
152.3833988402
 40
0.5001347005
100
AcDbArc
 50
0.006382393
 51
89.9761660754
  0
ARC
  5
2BF
100
AcDbEntity
 67
1
  8
DTM_AXIS
100
AcDbCircle
 62
7
  6
CONTINUOUS
 10
255.1481539522
 20
88.2979616812
 40
0.4995734527
100
AcDbArc
 50
314.9850973461
 51
0.0077704998
  0
ARC
  5
2C0
100
AcDbEntity
 67
1
  8
0
100
AcDbCircle
 62
7
  6
CONTINUOUS
 10
220.2433410777
 20
53.3984649787
 40
0.4995734527
100
AcDbArc
 50
269.9747766213
 51
0.0077704998
  0
ARC
  5
2C1
100
AcDbEntity
 67
1
  8
0
100
AcDbCircle
 62
7
  6
CONTINUOUS
 10
81.5636746433
 20
143.5601788265
 40
2.0
100
AcDbArc
 50
0.0
 51
90.0000000004
  0
ARC
  5
2C2
100
AcDbEntity
 67
1
  8
0
100
AcDbCircle
 62
7
  6
CONTINUOUS
 10
84.5636746433
 20
92.1175964229
 40
1.0
100
AcDbArc
 50
158.1985905148
 51
179.9999999988
  0
ARC
  5
2C3
100
AcDbEntity
 67
1
  8
0
100
AcDbCircle
 62
7
  6
CONTINUOUS
 10
68.9866416819
 20
149.5601788265
 40
1.0
100
AcDbArc
 50
338.1985905128
 51
21.8014094858
  0
ARC
  5
2C4
100
AcDbEntity
 67
1
  8
0
100
AcDbCircle
 62
7
  6
CONTINUOUS
 10
84.5636746433
 20
85.0027612301
 40
1.0
100
AcDbArc
 50
179.9999999987
 51
201.8014094875
  0
ARC
  5
2C5
100
AcDbEntity
 67
1
  8
0
100
AcDbCircle
 62
7
  6
CONTINUOUS
 10
84.5636746433
 20
82.1175964229
 40
1.0
100
AcDbArc
 50
158.1985905142
 51
180.0000000016
  0
ARC
  5
2C6
100
AcDbEntity
 67
1
  8
0
100
AcDbCircle
 62
7
  6
CONTINUOUS
 10
82.9866416819
 20
93.5601788265
 40
1.0
100
AcDbArc
 50
338.1985905131
 51
21.8014094875
  0
ARC
  5
2C7
100
AcDbEntity
 67
1
  8
0
100
AcDbCircle
 62
7
  6
CONTINUOUS
 10
84.5636746433
 20
75.0027612301
 40
1.0
100
AcDbArc
 50
179.9999999987
 51
201.8014094875
  0
ARC
  5
2C8
100
AcDbEntity
 67
1
  8
0
100
AcDbCircle
 62
7
  6
CONTINUOUS
 10
82.9866416819
 20
63.5601788265
 40
1.0
100
AcDbArc
 50
338.1985905125
 51
21.8014094869
  0
ARC
  5
2C9
100
AcDbEntity
 67
1
  8
0
100
AcDbCircle
 62
7
  6
CONTINUOUS
 10
84.5636746433
 20
72.1175964229
 40
1.0
100
AcDbArc
 50
158.1985905125
 51
180.0000000016
  0
ARC
  5
2CA
100
AcDbEntity
 67
1
  8
0
100
AcDbCircle
 62
7
  6
CONTINUOUS
 10
84.5636746433
 20
65.0027612301
 40
1.0
100
AcDbArc
 50
179.9999999987
 51
201.8014094869
  0
ARC
  5
2CB
100
AcDbEntity
 67
1
  8
0
100
AcDbCircle
 62
7
  6
CONTINUOUS
 10
82.9866416819
 20
73.5601788265
 40
1.0
100
AcDbArc
 50
338.1985905142
 51
21.8014094869
  0
ARC
  5
2CC
100
AcDbEntity
 67
1
  8
0
100
AcDbCircle
 62
7
  6
CONTINUOUS
 10
84.5636746433
 20
62.1175964229
 40
1.0
100
AcDbArc
 50
158.1985905142
 51
180.0000000016
  0
ARC
  5
2CD
100
AcDbEntity
 67
1
  8
0
100
AcDbCircle
 62
7
  6
CONTINUOUS
 10
82.9866416819
 20
83.5601788265
 40
1.0
100
AcDbArc
 50
338.1985905125
 51
21.8014094852
  0
ARC
  5
2CE
100
AcDbEntity
 67
1
  8
0
100
AcDbCircle
 62
7
  6
CONTINUOUS
 10
70.5636746433
 20
151.0027612301
 40
1.0
100
AcDbArc
 50
180.0
 51
201.8014094858
  0
ARC
  5
2CF
100
AcDbEntity
 67
1
  8
0
100
AcDbCircle
 62
7
  6
CONTINUOUS
 10
70.5636746433
 20
148.1175964229
 40
1.0
100
AcDbArc
 50
158.1985905148
 51
179.9999999989
  0
ARC
  5
2D0
100
AcDbEntity
 67
1
  8
0
100
AcDbCircle
 62
7
  6
CONTINUOUS
 10
70.5636746433
 20
146.5601788265
 40
1.0
100
AcDbArc
 50
180.0
 51
269.9999999988
  0
ARC
  5
2D1
100
AcDbEntity
 67
1
  8
0
100
AcDbCircle
 62
7
  6
CONTINUOUS
 10
84.5636746433
 20
95.0027612301
 40
1.0
100
AcDbArc
 50
180.0
 51
201.8014094852
  0
ARC
  5
2D2
100
AcDbEntity
 67
1
  8
0
100
AcDbCircle
 62
7
  6
CONTINUOUS
 10
84.2636746433
 20
54.2601788265
 40
0.7
100
AcDbArc
 50
180.0000000009
 51
269.9999999977
  0
ARC
  5
2D3
100
AcDbEntity
 67
1
  8
0
100
AcDbCircle
 62
7
  6
CONTINUOUS
 10
70.2636746433
 20
152.8601788265
 40
0.7
100
AcDbArc
 50
90.0000000026
 51
179.999999999
  0
ARC
  5
2D4
100
AcDbEntity
 67
1
  8
0
100
AcDbCircle
 62
7
  6
CONTINUOUS
 10
91.0636746433
 20
54.0601788265
 40
0.5
100
AcDbArc
 50
270.0000000036
 51
359.9999999951
  0
ARC
  5
2D5
100
AcDbEntity
 67
1
  8
0
100
AcDbCircle
 62
7
  6
CONTINUOUS
 10
91.0636746433
 20
153.0601788265
 40
0.5
100
AcDbArc
 50
0.0
 51
89.9999999936
  0
SPLINE
  5
2D6
100
AcDbEntity
 67
1
  8
0
100
AcDbSpline
 62
7
  6
CONTINUOUS
 70
0
 71
3
 72
8
 73
4
 74
0
 42
0.0000001
 43
0.0000001
 44
0.0000000001
 40
0.0
 40
0.0
 40
0.0
 40
0.0
 40
1.0
 40
1.0
 40
1.0
 40
1.0
 10
212.8156453802
 20
91.8239030174
 30
0.0
 10
212.768828395
 20
91.7068748163
 30
0.0
 10
212.7441329645
 20
91.5786360395
 30
0.0
 10
212.7441329645
 20
91.4525906907
 30
0.0
  0
SPLINE
  5
2D7
100
AcDbEntity
 67
1
  8
0
100
AcDbSpline
 62
7
  6
CONTINUOUS
 70
0
 71
3
 72
8
 73
4
 74
0
 42
0.0000001
 43
0.0000001
 44
0.0000000001
 40
0.0
 40
0.0
 40
0.0
 40
0.0
 40
1.0
 40
1.0
 40
1.0
 40
1.0
 10
212.7441329645
 20
84.3388391217
 30
0.0
 10
212.7441329645
 20
84.2127795116
 30
0.0
 10
212.7688329339
 20
84.0845286014
 30
0.0
 10
212.8156453803
 20
83.9674832248
 30
0.0
  0
SPLINE
  5
2D8
100
AcDbEntity
 67
1
  8
0
100
AcDbSpline
 62
7
  6
CONTINUOUS
 70
0
 71
3
 72
8
 73
4
 74
0
 42
0.0000001
 43
0.0000001
 44
0.0000000001
 40
0.0
 40
0.0
 40
0.0
 40
0.0
 40
1.0
 40
1.0
 40
1.0
 40
1.0
 10
212.8156453802
 20
81.8254260658
 30
0.0
 10
212.768828395
 20
81.7083978647
 30
0.0
 10
212.7441329645
 20
81.5801590879
 30
0.0
 10
212.7441329645
 20
81.4541137391
 30
0.0
  0
SPLINE
  5
2D9
100
AcDbEntity
 67
1
  8
0
100
AcDbSpline
 62
7
  6
CONTINUOUS
 70
0
 71
3
 72
8
 73
4
 74
0
 42
0.0000001
 43
0.0000001
 44
0.0000000001
 40
0.0
 40
0.0
 40
0.0
 40
0.0
 40
1.0
 40
1.0
 40
1.0
 40
1.0
 10
212.7441329645
 20
74.3403621701
 30
0.0
 10
212.7441329645
 20
74.21430256
 30
0.0
 10
212.7688329339
 20
74.0860516498
 30
0.0
 10
212.8156453803
 20
73.9690062733
 30
0.0
  0
SPLINE
  5
2DA
100
AcDbEntity
 67
1
  8
0
100
AcDbSpline
 62
7
  6
CONTINUOUS
 70
0
 71
3
 72
8
 73
4
 74
0
 42
0.0000001
 43
0.0000001
 44
0.0000000001
 40
0.0
 40
0.0
 40
0.0
 40
0.0
 40
1.0
 40
1.0
 40
1.0
 40
1.0
 10
212.8156453803
 20
71.8269491143
 30
0.0
 10
212.7688283951
 20
71.7099209132
 30
0.0
 10
212.7441329645
 20
71.5816821363
 30
0.0
 10
212.7441329645
 20
71.4556367875
 30
0.0
  0
SPLINE
  5
2DB
100
AcDbEntity
 67
1
  8
0
100
AcDbSpline
 62
7
  6
CONTINUOUS
 70
0
 71
3
 72
8
 73
4
 74
0
 42
0.0000001
 43
0.0000001
 44
0.0000000001
 40
0.0
 40
0.0
 40
0.0
 40
0.0
 40
1.0
 40
1.0
 40
1.0
 40
1.0
 10
212.7441329645
 20
64.3418852186
 30
0.0
 10
212.7441329645
 20
64.2158256084
 30
0.0
 10
212.7688329339
 20
64.0875746983
 30
0.0
 10
212.8156453803
 20
63.9705293217
 30
0.0
  0
SPLINE
  5
2DC
100
AcDbEntity
 67
1
  8
0
100
AcDbSpline
 62
7
  6
CONTINUOUS
 70
0
 71
3
 72
8
 73
4
 74
0
 42
0.0000001
 43
0.0000001
 44
0.0000000001
 40
0.0
 40
0.0
 40
0.0
 40
0.0
 40
1.0
 40
1.0
 40
1.0
 40
1.0
 10
212.8156453803
 20
61.8284721627
 30
0.0
 10
212.7688283951
 20
61.7114439616
 30
0.0
 10
212.7441329645
 20
61.5832051847
 30
0.0
 10
212.7441329645
 20
61.4571598359
 30
0.0
  0
SPLINE
  5
2DD
100
AcDbEntity
 67
1
  8
0
100
AcDbSpline
 62
7
  6
CONTINUOUS
 70
0
 71
3
 72
8
 73
4
 74
0
 42
0.0000001
 43
0.0000001
 44
0.0000000001
 40
0.0
 40
0.0
 40
0.0
 40
0.0
 40
1.0
 40
1.0
 40
1.0
 40
1.0
 10
198.7462652323
 20
150.3330512128
 30
0.0
 10
198.7462652323
 20
150.2069916027
 30
0.0
 10
198.7709652017
 20
150.0787406926
 30
0.0
 10
198.8177776481
 20
149.9616953161
 30
0.0
  0
SPLINE
  5
2DE
100
AcDbEntity
 67
1
  8
0
100
AcDbSpline
 62
7
  6
CONTINUOUS
 70
0
 71
3
 72
8
 73
4
 74
0
 42
0.0000001
 43
0.0000001
 44
0.0000000001
 40
0.0
 40
0.0
 40
0.0
 40
0.0
 40
1.0
 40
1.0
 40
1.0
 40
1.0
 10
198.8177776481
 20
147.819638157
 30
0.0
 10
198.7709606628
 20
147.7026099559
 30
0.0
 10
198.7462652323
 20
147.5743711791
 30
0.0
 10
198.7462652323
 20
147.4483258303
 30
0.0
  0
SPLINE
  5
2DF
100
AcDbEntity
 67
1
  8
0
100
AcDbSpline
 62
7
  6
CONTINUOUS
 70
0
 71
3
 72
8
 73
4
 74
0
 42
0.0000001
 43
0.0000001
 44
0.0000000001
 40
0.0
 40
0.0
 40
0.0
 40
0.0
 40
1.0
 40
1.0
 40
1.0
 40
1.0
 10
212.7441329645
 20
94.3373160732
 30
0.0
 10
212.7441329645
 20
94.2112564631
 30
0.0
 10
212.7688329339
 20
94.083005553
 30
0.0
 10
212.8156453803
 20
93.9659601765
 30
0.0
  0
ENDSEC
  0
SECTION
  2
OBJECTS
  0
DICTIONARY
  5
C
100
AcDbDictionary
280
0
281
1
  3
ACAD_GROUP
350
D
  3
ACAD_MLINESTYLE
350
17
  3
ACAD_LAYOUT
350
1A
  3
ACAD_PLOTSETTINGS
350
19
  3
ACAD_PLOTSTYLENAME
350
E
  3
ACAD_TABLESTYLE
350
       2E0
  0
DICTIONARY
  5
D
102
{ACAD_REACTORS
330
C
102
}
100
AcDbDictionary
280
0
281
1
  0
ACDBDICTIONARYWDFLT
  5
E
102
{ACAD_REACTORS
330
C
102
}
100
AcDbDictionary
281
1
  3
Normal
350
F
100
AcDbDictionaryWithDefault
340
F
  0
DICTIONARY
  5
17
102
{ACAD_REACTORS
330
C
102
}
100
AcDbDictionary
280
0
281
1
  3
Standard
350
18
  0
DICTIONARY
  5
2E0
330
C
100
AcDbDictionary
281
1
  3
Standard
350
       2E3
  3
Standard1
350
       2E4
  0
DICTIONARY
  5
19
102
{ACAD_REACTORS
330
C
102
}
100
AcDbDictionary
281
1
  0
DICTIONARY
  5
1A
102
{ACAD_REACTORS
330
C
102
}
100
AcDbDictionary
281
1
  3
Model
350
2E1
  3
SX171-PROD-MM-INCHES_1
350
2E2
  0
ACDBPLACEHOLDER
  5
F
102
{ACAD_REACTORS
330
E
102
}
  0
MLINESTYLE
  5
18
102
{ACAD_REACTORS
330
17
102
}
100
AcDbMlineStyle
  2
STANDARD
 70
0
  3

 62
256
 51
90.0
 52
90.0
 71
2
 49
0.5
 62
256
  6
BYLAYER
 49
-0.5
 62
256
  6
BYLAYER
  0
LAYOUT
  5
2E1
102
{ACAD_REACTORS
330
1A
102
}
100
AcDbPlotSettings
  1

  2
none_device
  4

  6

 40
0.0
 41
0.0
 42
0.0
 43
0.0
 44
297.0
 45
210.0
 46
0.0
 47
0.0
 48
0.0
 49
0.0
140
0.0
141
0.0
142
1.0
143
1.0
 70
1024
 72
1
 73
0
 74
0
  7

 75
0
147
1.0
148
0.0
149
0.0
100
AcDbLayout
  1
Model
 70
0
 71
0
 10
0.0
 20
0.0
 11
297.0
 21
210.0
 12
0.0
 22
0.0
 32
0.0
 14
0.0
 24
0.0
 34
0.0
 15
0.0
 25
0.0
 35
0.0
146
0.0
 13
0.0
 23
0.0
 33
0.0
 16
1.0
 26
0.0
 36
0.0
 17
0.0
 27
1.0
 37
0.0
 76
0
330
214
345
0
346
0
  0
LAYOUT
  5
2E2
102
{ACAD_REACTORS
330
1A
102
}
100
AcDbPlotSettings
  1

  2
none_device
  4
ISO_A4_(297.00_x_210.00_MM)
  6

 40
0.0
 41
0.0
 42
0.0
 43
0.0
 44
297.0
 45
210.0
 46
0.0
 47
0.0
 48
0.0
 49
0.0
140
0.0
141
0.0
142
1.0
143
1.0
 70
0
 72
1
 73
0
 74
0
  7

 75
0
147
1.0
148
0.0
149
0.0
100
AcDbLayout
  1
SX171-PROD-MM-INCHES_1
 70
0
 71
1
 10
0.0
 20
0.0
 11
297.0
 21
210.0
 12
0.0
 22
0.0
 32
0.0
 14
0.0
 24
0.0
 34
0.0
 15
0.0
 25
0.0
 35
0.0
146
0.0
 13
0.0
 23
0.0
 33
0.0
 16
1.0
 26
0.0
 36
0.0
 17
0.0
 27
1.0
 37
0.0
 76
0
330
215
331
272
345
0
346
0
  0
TABLESTYLE
  5
2E3
102
{ACAD_REACTORS
330
2E0
330
277
102
}
330
2E0
100
AcDbTableStyle
  3
Standard
 70
0
 71
0
 40
0.06
 41
0.06
280
1
281
1
  7
Standard
140
0.18
170
1
 62
0
 63
7
283
0
  7
Standard
140
0.18
170
1
 62
0
 63
7
283
0
  7
Standard
140
0.18
170
1
 62
0
 63
7
283
0
  0
TABLESTYLE
  5
2E4
102
{ACAD_REACTORS
330
2E0
102
}
330
2E0
100
AcDbTableStyle
  3
Standard1
 70
1
 71
0
 40
0.06
 41
0.06
280
1
281
1
  7
Standard
140
0.18
170
1
 62
0
 63
7
283
0
  7
Standard
140
0.18
170
1
 62
0
 63
7
283
0
  7
Standard
140
0.18
170
1
 62
0
 63
7
283
0
  0
ENDSEC
  0
EOF
