999
DXF file: O:\ORAC_PRODUCTEN\ORAC_XPS\CB\CB503\cb503-prod-mm_1.dxf
999
Pro/ENGINEER 2018500 by Parametric Technology Corporation
  0
SECTION
  2
HEADER
  9
$ACADVER
  1
AC1024
  9
$DWGCODEPAGE
  3
ANSI_1250
  9
$EXTMAX
 10
297.0
 20
210.0
 30
0.0
  9
$EXTMIN
 10
0.0
 20
0.0
 30
0.0
  9
$LIMMIN
 10
0.0
 20
0.0
  9
$LIMMAX
 10
297.0
 20
210.0
  9
$VIEWCTR
 10
148.5
 20
105.0
  9
$VIEWSIZE
 40
210.0
  9
$CLAYER
  8
0
  9
$LTSCALE
 40
16.335
  9
$CELTYPE
  6
BYLAYER
  9
$DIMSCALE
 40
1.0
  9
$DIMASZ
 40
3.5
  9
$DIMEXO
 40
1.0
  9
$DIMDLI
 40
11.286
  9
$DIMEXE
 40
1.5
  9
$DIMCEN
 40
2.673
  9
$DIMLFAC
 40
1.0
  9
$DIMBLK
  1
_FILLED
  9
$DIMALT
 70
0
  9
$DIMALTF
 40
0.0393700787
  9
$DIMTXT
 40
2.5
  9
$DIMTOL
 70
1
  9
$DIMLIM
 70
0
  9
$DIMTFAC
 40
1.0
  9
$DIMTP
 40
0.001
  9
$DIMTM
 40
0.001
  9
$DIMGAP
 40
0.625
  9
$DIMDSEP
 70
44
  9
$AUNITS
 70
0
  9
$PDMODE
 70
3
  9
$PDSIZE
 40
8.0
  9
$HANDSEED
  5
31B
  9
$TILEMODE
 70
1
  9
$MEASUREMENT
 70
1
  9
$INSUNITS
 70
4
  0
ENDSEC
  0
SECTION
  2
CLASSES
  0
CLASS
  1
ACDBDICTIONARYWDFLT
  2
AcDbDictionaryWithDefault
  3
AutoCAD 2000
 90
0
 91
1
280
0
281
0
  0
CLASS
  1
ACDBPLACEHOLDER
  2
AcDbPlaceHolder
  3
AutoCAD 2000
 90
0
 91
1
280
0
281
0
  0
CLASS
  1
LAYOUT
  2
AcDbLayout
  3
AutoCAD 2000
 90
0
 91
0
280
0
281
0
  0
CLASS
  1
TABLESTYLE
  2
AcDbTableStyle
  3
ObjectDBX Classes
 90
2047
 91
1
280
0
281
0
  0
CLASS
  1
ACAD_TABLE
  2
AcDbTable
  3
ObjectDBX Classes
 90
1025
 91
1
280
0
281
1
  0
ENDSEC
  0
SECTION
  2
TABLES
  0
TABLE
  2
VPORT
  5
8
100
AcDbSymbolTable
 70
2
  0
VPORT
  5
1F4
100
AcDbSymbolTableRecord
100
AcDbViewportTableRecord
  2
*ACTIVE
 70
0
 10
0.0
 20
0.0
 11
1.0
 21
1.0
 12
148.5
 22
105.0
 13
0.0
 23
0.0
 14
1.0
 24
1.0
 15
0.0
 25
0.0
 16
0.0
 26
0.0
 36
1.0
 17
0.0
 27
0.0
 37
0.0
 40
210.0
 41
1.4142857143
 42
50.0
 43
0.0
 44
0.0
 50
0.0
 51
0.0
 71
0
 72
100
 73
1
 74
1
 75
0
 76
0
 77
0
 78
0
  0
ENDTAB
  0
TABLE
  2
LTYPE
  5
5
100
AcDbSymbolTable
 70
6
  0
LTYPE
  5
14
100
AcDbSymbolTableRecord
100
AcDbLinetypeTableRecord
  2
BYBLOCK
 70
0
  3

 72
65
 73
0
 40
0.0
  0
LTYPE
  5
15
100
AcDbSymbolTableRecord
100
AcDbLinetypeTableRecord
  2
BYLAYER
 70
0
  3

 72
65
 73
0
 40
0.0
  0
LTYPE
  5
16
100
AcDbSymbolTableRecord
100
AcDbLinetypeTableRecord
  2
CONTINUOUS
 70
64
  3
Solid line
 72
65
 73
0
 40
0.0
  0
LTYPE
  5
1F5
100
AcDbSymbolTableRecord
100
AcDbLinetypeTableRecord
  2
CENTER
 70
64
  3
____ _ ____ _ ____ _ ____ _ ____ _ ____ _ ____
 72
65
 73
4
 40
0.6
 49
0.375
 74
0
 49
-0.075
 74
0
 49
0.075
 74
0
 49
-0.075
 74
0
  0
LTYPE
  5
1F6
100
AcDbSymbolTableRecord
100
AcDbLinetypeTableRecord
  2
HIDDEN
 70
64
  3
- - - - - - - - - - - - - - - - - - - -
 72
65
 73
2
 40
0.2
 49
0.1
 74
0
 49
-0.1
 74
0
  0
LTYPE
  5
1F7
100
AcDbSymbolTableRecord
100
AcDbLinetypeTableRecord
  2
PHANTOM
 70
64
  3
_____ _ _ _____ _ _ _____ _ _ _____
 72
65
 73
6
 40
0.8
 49
0.45
 74
0
 49
-0.05
 74
0
 49
0.1
 74
0
 49
-0.05
 74
0
 49
0.1
 74
0
 49
-0.05
 74
0
  0
LTYPE
  5
1F8
100
AcDbSymbolTableRecord
100
AcDbLinetypeTableRecord
  2
DOT
 70
64
  3
. . . . . . . . . . . . . . . . . . . .
 72
65
 73
2
 40
0.2
 49
0.1
 74
0
 49
-0.1
 74
0
  0
LTYPE
  5
1F9
100
AcDbSymbolTableRecord
100
AcDbLinetypeTableRecord
  2
DASHED
 70
64
  3
- - - - - - - - - - - - - - - - - - - -
 72
65
 73
2
 40
0.2
 49
0.1
 74
0
 49
-0.1
 74
0
  0
ENDTAB
  0
TABLE
  2
LAYER
  5
2
100
AcDbSymbolTable
 70
36
  0
LAYER
  5
10
100
AcDbSymbolTableRecord
100
AcDbLayerTableRecord
  2
0
 70
0
 62
7
  6
CONTINUOUS
370
-3
390
F
  0
LAYER
  5
1FA
100
AcDbSymbolTableRecord
100
AcDbLayerTableRecord
  2
DEFAULT_1
 70
0
 62
7
  6
CENTER
370
-3
390
F
  0
LAYER
  5
1FB
100
AcDbSymbolTableRecord
100
AcDbLayerTableRecord
  2
DEFAULT_2
 70
0
 62
8
  6
HIDDEN
370
-3
390
F
  0
LAYER
  5
1FC
100
AcDbSymbolTableRecord
100
AcDbLayerTableRecord
  2
DEFAULT_3
 70
0
 62
7
  6
PHANTOM
370
-3
390
F
  0
LAYER
  5
1FD
100
AcDbSymbolTableRecord
100
AcDbLayerTableRecord
  2
01___PRT_ALL_DTM_PLN
 70
0
 62
7
  6
CONTINUOUS
370
-3
390
F
  0
LAYER
  5
1FE
100
AcDbSymbolTableRecord
100
AcDbLayerTableRecord
  2
01___PRT_DEF_DTM_PLN
 70
0
 62
7
  6
CONTINUOUS
370
-3
390
F
  0
LAYER
  5
1FF
100
AcDbSymbolTableRecord
100
AcDbLayerTableRecord
  2
02___PRT_ALL_AXES
 70
0
 62
7
  6
CONTINUOUS
370
-3
390
F
  0
LAYER
  5
200
100
AcDbSymbolTableRecord
100
AcDbLayerTableRecord
  2
03___PRT_ALL_CURVES
 70
0
 62
7
  6
CONTINUOUS
370
-3
390
F
  0
LAYER
  5
201
100
AcDbSymbolTableRecord
100
AcDbLayerTableRecord
  2
04___PRT_ALL_DTM_PNT
 70
0
 62
7
  6
CONTINUOUS
370
-3
390
F
  0
LAYER
  5
202
100
AcDbSymbolTableRecord
100
AcDbLayerTableRecord
  2
05___PRT_ALL_DTM_CSYS
 70
0
 62
7
  6
CONTINUOUS
370
-3
390
F
  0
LAYER
  5
203
100
AcDbSymbolTableRecord
100
AcDbLayerTableRecord
  2
05___PRT_DEF_DTM_CSYS
 70
0
 62
7
  6
CONTINUOUS
370
-3
390
F
  0
LAYER
  5
204
100
AcDbSymbolTableRecord
100
AcDbLayerTableRecord
  2
06___PRT_ALL_SURFS
 70
0
 62
7
  6
CONTINUOUS
370
-3
390
F
  0
LAYER
  5
205
100
AcDbSymbolTableRecord
100
AcDbLayerTableRecord
  2
3_ALL_AXIS
 70
0
 62
7
  6
CONTINUOUS
370
-3
390
F
  0
LAYER
  5
206
100
AcDbSymbolTableRecord
100
AcDbLayerTableRecord
  2
5_ALL_CURVES
 70
0
 62
7
  6
CONTINUOUS
370
-3
390
F
  0
LAYER
  5
207
100
AcDbSymbolTableRecord
100
AcDbLayerTableRecord
  2
AXES
 70
0
 62
7
  6
CONTINUOUS
370
-3
390
F
  0
LAYER
  5
208
100
AcDbSymbolTableRecord
100
AcDbLayerTableRecord
  2
DTM_ALL
 70
0
 62
7
  6
CONTINUOUS
370
-3
390
F
  0
LAYER
  5
209
100
AcDbSymbolTableRecord
100
AcDbLayerTableRecord
  2
DTM_AXIS
 70
0
 62
7
  6
CONTINUOUS
370
-3
390
F
  0
LAYER
  5
20A
100
AcDbSymbolTableRecord
100
AcDbLayerTableRecord
  2
DTM_CSYS
 70
0
 62
7
  6
CONTINUOUS
370
-3
390
F
  0
LAYER
  5
20B
100
AcDbSymbolTableRecord
100
AcDbLayerTableRecord
  2
DTM_CURVE
 70
0
 62
7
  6
CONTINUOUS
370
-3
390
F
  0
LAYER
  5
20C
100
AcDbSymbolTableRecord
100
AcDbLayerTableRecord
  2
DTM_MASTER
 70
0
 62
7
  6
CONTINUOUS
370
-3
390
F
  0
LAYER
  5
20D
100
AcDbSymbolTableRecord
100
AcDbLayerTableRecord
  2
DTM_POINT
 70
0
 62
7
  6
CONTINUOUS
370
-3
390
F
  0
LAYER
  5
20E
100
AcDbSymbolTableRecord
100
AcDbLayerTableRecord
  2
DTM_QUILT
 70
0
 62
7
  6
CONTINUOUS
370
-3
390
F
  0
LAYER
  5
20F
100
AcDbSymbolTableRecord
100
AcDbLayerTableRecord
  2
GTOL
 70
0
 62
7
  6
CONTINUOUS
370
-3
390
F
  0
LAYER
  5
210
100
AcDbSymbolTableRecord
100
AcDbLayerTableRecord
  2
NOTES
 70
0
 62
7
  6
CONTINUOUS
370
-3
390
F
  0
LAYER
  5
211
100
AcDbSymbolTableRecord
100
AcDbLayerTableRecord
  2
REF_PLANS
 70
0
 62
7
  6
CONTINUOUS
370
-3
390
F
  0
LAYER
  5
212
100
AcDbSymbolTableRecord
100
AcDbLayerTableRecord
  2
XSEC_DATUMS
 70
0
 62
7
  6
CONTINUOUS
370
-3
390
F
  0
ENDTAB
  0
TABLE
  2
STYLE
  5
3
100
AcDbSymbolTable
 70
1
  0
STYLE
  5
11
100
AcDbSymbolTableRecord
100
AcDbTextStyleTableRecord
  2
STANDARD
 70
0
 40
0.0
 41
1.0
 50
0.0
 71
0
 42
0.2
  3
cgtime.ttf
  4

  0
STYLE
  5
213
100
AcDbSymbolTableRecord
100
AcDbTextStyleTableRecord
  2
TEXTSTYLE_1
 70
0
 40
0.0
 41
0.8
 50
0.0
 71
0
 42
0.2
  3
gdt
  4

  0
STYLE
  5
214
100
AcDbSymbolTableRecord
100
AcDbTextStyleTableRecord
  2
TEXTSTYLE_2
 70
0
 40
0.0
 41
1.0
 50
0.0
 71
0
 42
0.2
  3
trium.ttf
  4

  0
STYLE
  5
215
100
AcDbSymbolTableRecord
100
AcDbTextStyleTableRecord
  2
TEXTSTYLE_3
 70
0
 40
0.0
 41
1.0
 50
0.0
 71
0
 42
0.2
  3
calibri.ttf
  4

  0
ENDTAB
  0
TABLE
  2
VIEW
  5
6
100
AcDbSymbolTable
 70
0
  0
ENDTAB
  0
TABLE
  2
UCS
  5
7
100
AcDbSymbolTable
 70
0
  0
ENDTAB
  0
TABLE
  2
APPID
  5
9
100
AcDbSymbolTable
 70
1
  0
APPID
  5
216
100
AcDbSymbolTableRecord
100
AcDbRegAppTableRecord
  2
ACAD
 70
0
  0
ENDTAB
  0
TABLE
  2
BLOCK_RECORD
  5
1
100
AcDbSymbolTable
 70
0
  0
BLOCK_RECORD
  5
217
100
AcDbSymbolTableRecord
100
AcDbBlockTableRecord
  2
*Model_Space
  0
BLOCK_RECORD
  5
218
100
AcDbSymbolTableRecord
100
AcDbBlockTableRecord
  2
*Paper_Space
  0
BLOCK_RECORD
  5
219
100
AcDbSymbolTableRecord
100
AcDbBlockTableRecord
  2
_FILLED
  0
BLOCK_RECORD
  5
21A
100
AcDbSymbolTableRecord
100
AcDbBlockTableRecord
  2
*D0
  0
BLOCK_RECORD
  5
21B
100
AcDbSymbolTableRecord
100
AcDbBlockTableRecord
  2
*D1
  0
BLOCK_RECORD
  5
21C
100
AcDbSymbolTableRecord
100
AcDbBlockTableRecord
  2
*D2
  0
BLOCK_RECORD
  5
21D
100
AcDbSymbolTableRecord
100
AcDbBlockTableRecord
  2
*D3
  0
BLOCK_RECORD
  5
21E
100
AcDbSymbolTableRecord
100
AcDbBlockTableRecord
  2
*D4
  0
BLOCK_RECORD
  5
21F
100
AcDbSymbolTableRecord
100
AcDbBlockTableRecord
  2
*D5
  0
BLOCK_RECORD
  5
220
100
AcDbSymbolTableRecord
100
AcDbBlockTableRecord
  2
*D6
  0
BLOCK_RECORD
  5
221
100
AcDbSymbolTableRecord
100
AcDbBlockTableRecord
  2
*T1
  0
ENDTAB
  0
TABLE
  2
DIMSTYLE
  5
A
100
AcDbSymbolTable
 70
1
100
AcDbDimStyleTable
 71
0
  0
DIMSTYLE
105
222
100
AcDbSymbolTableRecord
100
AcDbDimStyleTableRecord
  2
STANDARD
 70
0
  3

  4

 40
1.0
 41
3.5
 42
1.0
 43
0.38
 44
1.5
 45
0.0
 46
0.0
 47
0.001
 48
0.001
140
2.5
141
0.09
142
0.0
143
25.4
144
1.0
145
0.0
146
1.0
147
0.625
 71
1.0
 72
0.0
 73
1
 74
1
 75
0
 76
0
 77
0
 78
8
 79
2
170
0
171
2
172
0
173
0
174
0
175
0
176
0
177
0
178
0
270
2
179
3
271
3
272
3
273
2
274
2
275
0
280
0
281
0
282
0
283
1
284
8
285
0
286
0
287
3
288
0
340
11
278
44
341
219
342
219
343
219
344
219
  0
DIMSTYLE
105
223
100
AcDbSymbolTableRecord
100
AcDbDimStyleTableRecord
  2
DIMSTYLE_1
 70
0
  3

  4

 40
1.0
 41
3.5
 42
1.0
 43
0.38
 44
1.5
 45
0.0
 46
0.0
 47
0.0
 48
0.0
140
2.5
141
0.09
142
0.0
143
25.4
144
1.0
145
0.0
146
1.0
147
1.25
 71
0.0
 72
0.0
 73
1
 74
1
 75
0
 76
0
 77
0
 78
8
 79
2
170
0
171
2
172
0
173
0
174
0
175
0
176
0
177
0
178
0
270
2
179
3
271
0
272
0
273
2
274
2
275
0
280
0
281
0
282
0
283
1
284
8
285
0
286
0
287
3
288
0
340
11
278
44
341
219
342
219
343
219
344
219
  0
DIMSTYLE
105
224
100
AcDbSymbolTableRecord
100
AcDbDimStyleTableRecord
  2
DIMSTYLE_2
 70
0
  3

  4

 40
1.0
 41
3.5
 42
1.0
 43
0.38
 44
1.5
 45
0.0
 46
0.0
 47
0.0
 48
0.0
140
2.5
141
0.09
142
0.0
143
25.4
144
1.0
145
0.0
146
1.0
147
1.25
 71
0.0
 72
0.0
 73
1
 74
1
 75
0
 76
0
 77
0
 78
8
 79
2
170
0
171
2
172
0
173
0
174
0
175
0
176
0
177
0
178
0
270
2
179
3
271
3
272
3
273
2
274
2
275
0
280
0
281
0
282
0
283
1
284
8
285
0
286
0
287
3
288
0
340
11
278
44
341
219
342
219
343
219
344
219
  0
DIMSTYLE
105
225
100
AcDbSymbolTableRecord
100
AcDbDimStyleTableRecord
  2
DIMSTYLE_3
 70
0
  3

  4

 40
1.0
 41
3.5
 42
1.0
 43
0.38
 44
1.5
 45
0.0
 46
0.0
 47
0.0
 48
0.0
140
2.5
141
0.09
142
0.0
143
25.4
144
1.0
145
0.0
146
1.0
147
1.25
 71
0.0
 72
0.0
 73
1
 74
1
 75
0
 76
0
 77
0
 78
8
 79
2
170
0
171
2
172
0
173
0
174
0
175
0
176
0
177
0
178
0
270
2
179
3
271
1
272
1
273
2
274
2
275
0
280
0
281
0
282
0
283
1
284
8
285
0
286
0
287
3
288
0
340
11
278
44
341
219
342
219
343
219
344
219
  0
ENDTAB
  0
ENDSEC
  0
SECTION
  2
BLOCKS
  0
BLOCK
  5
20
100
AcDbEntity
  8
0
100
AcDbBlockBegin
  2
*Model_Space
 70
0
 10
0.0
 20
0.0
 30
0.0
  3
*Model_Space
  1

  0
ENDBLK
  5
21
100
AcDbEntity
  8
0
100
AcDbBlockEnd
  0
BLOCK
  5
1C
100
AcDbEntity
  8
0
100
AcDbBlockBegin
  2
*Paper_Space
 70
0
 10
0.0
 20
0.0
 30
0.0
  3
*Paper_Space
  1

  0
ENDBLK
  5
1D
100
AcDbEntity
  8
0
100
AcDbBlockEnd
  0
BLOCK
  5
226
100
AcDbEntity
  8
0
100
AcDbBlockBegin
  2
_FILLED
 70
64
 10
0.0
 20
0.0
  3
_FILLED
  1

  0
SOLID
  5
227
100
AcDbEntity
  8
0
  6
BYBLOCK
 62
0
100
AcDbTrace
 10
0.0
 20
0.0
 11
-1.0
 21
0.2142857143
 12
-1.0
 22
-0.2142857143
 13
-1.0
 23
-0.2142857143
  0
ENDBLK
  5
228
100
AcDbEntity
  8
0
  6
BYBLOCK
 62
0
100
AcDbBlockEnd
  0
BLOCK
  5
229
100
AcDbEntity
  8
0
100
AcDbBlockBegin
 62
2
  6
CONTINUOUS
  2
*D0
 70
65
 10
0.0
 20
0.0
  3
*D0
  1

  0
TEXT
  5
22A
100
AcDbEntity
  8
0
100
AcDbText
 62
2
  6
CONTINUOUS
 10
74.0407442048
 20
185.4730590777
  7
STANDARD
 40
2.5
  1
92
 72
5
 11
77.6788765005
 21
185.4730590777
100
AcDbText
  0
TEXT
  5
22B
100
AcDbEntity
  8
0
100
AcDbText
 62
2
  6
CONTINUOUS
 10
77.6788765005
 20
185.4730590777
  7
STANDARD
 40
2.5
  1
mm
 72
5
 11
83.3500827262
 21
185.4730590777
100
AcDbText
  0
TEXT
  5
22C
100
AcDbEntity
  8
0
100
AcDbText
 62
2
  6
CONTINUOUS
 10
73.9094212476
 20
181.7230590777
  7
STANDARD
 40
2.5
  1
3-5/8"
 72
5
 11
83.4814056834
 21
181.7230590777
100
AcDbText
  0
LINE
  5
22D
100
AcDbEntity
  8
0
100
AcDbLine
 62
2
  6
CONTINUOUS
 10
32.6954234655
 20
105.7524686465
 11
32.6954234655
 21
188.2230590777
  0
LINE
  5
22E
100
AcDbEntity
  8
0
100
AcDbLine
 62
2
  6
CONTINUOUS
 10
124.6954034655
 20
169.2738175244
 11
124.6954034655
 21
188.2230590777
  0
LINE
  5
22F
100
AcDbEntity
  8
0
100
AcDbLine
 62
2
  6
CONTINUOUS
 10
32.6954234655
 20
186.7230590777
 11
72.7907442048
 21
186.7230590777
  0
LINE
  5
230
100
AcDbEntity
  8
0
100
AcDbLine
 62
2
  6
CONTINUOUS
 10
124.6954034655
 20
186.7230590777
 11
84.6000827262
 21
186.7230590777
  0
INSERT
  5
231
100
AcDbEntity
  8
0
100
AcDbBlockReference
 62
2
  6
CONTINUOUS
  2
_FILLED
 10
32.6954234655
 20
186.7230590777
 41
3.5
 42
3.5
 43
3.5
 50
180.0
  0
INSERT
  5
232
100
AcDbEntity
  8
0
100
AcDbBlockReference
 62
2
  6
CONTINUOUS
  2
_FILLED
 10
124.6954034655
 20
186.7230590777
 41
3.5
 42
3.5
 43
3.5
 50
0.0
  0
ENDBLK
  5
233
100
AcDbEntity
  8
0
  6
BYBLOCK
 62
0
100
AcDbBlockEnd
  0
BLOCK
  5
234
100
AcDbEntity
  8
0
100
AcDbBlockBegin
 62
2
  6
CONTINUOUS
  2
*D1
 70
65
 10
0.0
 20
0.0
  3
*D1
  1

  0
TEXT
  5
235
100
AcDbEntity
  8
0
100
AcDbText
 62
2
  6
CONTINUOUS
 10
9.2489842026
 20
126.0238167744
  7
STANDARD
 40
2.5
  1
82
 72
5
 11
12.8871164983
 21
126.0238167744
100
AcDbText
  0
TEXT
  5
236
100
AcDbEntity
  8
0
100
AcDbText
 62
2
  6
CONTINUOUS
 10
12.8871164983
 20
126.0238167744
  7
STANDARD
 40
2.5
  1
mm
 72
5
 11
18.558322724
 21
126.0238167744
100
AcDbText
  0
TEXT
  5
237
100
AcDbEntity
  8
0
100
AcDbText
 62
2
  6
CONTINUOUS
 10
9.1176612454
 20
122.2738167744
  7
STANDARD
 40
2.5
  1
3-1/4"
 72
5
 11
18.6896456812
 21
122.2738167744
100
AcDbText
  0
LINE
  5
238
100
AcDbEntity
  8
0
100
AcDbLine
 62
2
  6
CONTINUOUS
 10
104.4695826909
 20
168.2738175244
 11
12.4036534633
 21
168.2738175244
  0
LINE
  5
239
100
AcDbEntity
  8
0
100
AcDbLine
 62
2
  6
CONTINUOUS
 10
31.6954234655
 20
86.2738160244
 11
12.4036534633
 21
86.2738160244
  0
LINE
  5
23A
100
AcDbEntity
  8
0
100
AcDbLine
 62
2
  6
CONTINUOUS
 10
13.9036534633
 20
168.2738175244
 11
13.9036534633
 21
129.7738167744
  0
LINE
  5
23B
100
AcDbEntity
  8
0
100
AcDbLine
 62
2
  6
CONTINUOUS
 10
13.9036534633
 20
86.2738160244
 11
13.9036534633
 21
121.0238167744
  0
INSERT
  5
23C
100
AcDbEntity
  8
0
100
AcDbBlockReference
 62
2
  6
CONTINUOUS
  2
_FILLED
 10
13.9036534633
 20
168.2738175244
 41
3.5
 42
3.5
 43
3.5
 50
90.0
  0
INSERT
  5
23D
100
AcDbEntity
  8
0
100
AcDbBlockReference
 62
2
  6
CONTINUOUS
  2
_FILLED
 10
13.9036534633
 20
86.2738160244
 41
3.5
 42
3.5
 43
3.5
 50
270.0
  0
ENDBLK
  5
23E
100
AcDbEntity
  8
0
  6
BYBLOCK
 62
0
100
AcDbBlockEnd
  0
BLOCK
  5
23F
100
AcDbEntity
  8
0
100
AcDbBlockBegin
 62
2
  6
CONTINUOUS
  2
*D2
 70
65
 10
0.0
 20
0.0
  3
*D2
  1

  0
TEXT
  5
240
100
AcDbEntity
  8
0
100
AcDbText
 62
2
  6
CONTINUOUS
 10
84.6403075013
 20
113.1111751094
  7
STANDARD
 40
2.5
  1
123
 72
5
 11
90.0975059449
 21
113.1111751094
100
AcDbText
  0
TEXT
  5
241
100
AcDbEntity
  8
0
100
AcDbText
 62
2
  6
CONTINUOUS
 10
90.0975059449
 20
113.1111751094
  7
STANDARD
 40
2.5
  1
mm
 72
5
 11
95.7687121706
 21
113.1111751094
100
AcDbText
  0
TEXT
  5
242
100
AcDbEntity
  8
0
100
AcDbText
 62
2
  6
CONTINUOUS
 10
85.418517618
 20
109.3611751094
  7
STANDARD
 40
2.5
  1
4-7/8"
 72
5
 11
94.9905020538
 21
109.3611751094
100
AcDbText
  0
LINE
  5
243
100
AcDbEntity
  8
0
100
AcDbLine
 62
2
  6
CONTINUOUS
 10
33.3607940777
 20
85.5273028306
 11
45.2025757541
 21
72.2414045687
  0
LINE
  5
244
100
AcDbEntity
  8
0
100
AcDbLine
 62
2
  6
CONTINUOUS
 10
125.3607740777
 20
167.5273043306
 11
137.2025557541
 21
154.2414060687
  0
LINE
  5
245
100
AcDbEntity
  8
0
100
AcDbLine
 62
2
  6
CONTINUOUS
 10
44.2045198359
 20
73.3611743594
 11
84.168517618
 21
108.9812677342
  0
LINE
  5
246
100
AcDbEntity
  8
0
100
AcDbLine
 62
2
  6
CONTINUOUS
 10
136.2044998359
 20
155.3611758594
 11
93.0093872236
 21
116.8611751094
  0
INSERT
  5
247
100
AcDbEntity
  8
0
100
AcDbBlockReference
 62
2
  6
CONTINUOUS
  2
_FILLED
 10
44.2045198359
 20
73.3611743594
 41
3.5
 42
3.5
 43
3.5
 50
221.7107640289
  0
INSERT
  5
248
100
AcDbEntity
  8
0
100
AcDbBlockReference
 62
2
  6
CONTINUOUS
  2
_FILLED
 10
136.2044998359
 20
155.3611758594
 41
3.5
 42
3.5
 43
3.5
 50
41.7107640289
  0
ENDBLK
  5
249
100
AcDbEntity
  8
0
  6
BYBLOCK
 62
0
100
AcDbBlockEnd
  0
BLOCK
  5
24A
100
AcDbEntity
  8
0
100
AcDbBlockBegin
 62
2
  6
CONTINUOUS
  2
*D3
 70
65
 10
0.0
 20
0.0
  3
*D3
  1

  0
TEXT
  5
24B
100
AcDbEntity
  8
0
100
AcDbText
 62
2
  6
CONTINUOUS
 10
143.9799234297
 20
176.6689543533
  7
STANDARD
 40
2.5
  1
6,8
 72
5
 11
148.8340090329
 21
176.6689543533
100
AcDbText
  0
TEXT
  5
24C
100
AcDbEntity
  8
0
100
AcDbText
 62
2
  6
CONTINUOUS
 10
148.8340090329
 20
176.6689543533
  7
STANDARD
 40
2.5
  1
mm
 72
5
 11
154.5052152585
 21
176.6689543533
100
AcDbText
  0
TEXT
  5
24D
100
AcDbEntity
  8
0
100
AcDbText
 62
2
  6
CONTINUOUS
 10
143.9799234297
 20
172.9189543533
  7
STANDARD
 40
2.5
  1
1/4"
 72
5
 11
150.5168884103
 21
172.9189543533
100
AcDbText
  0
LINE
  5
24E
100
AcDbEntity
  8
0
100
AcDbLine
 62
2
  6
CONTINUOUS
 10
125.6954034655
 20
168.2738175244
 11
139.4799234297
 21
168.2738175244
  0
LINE
  5
24F
100
AcDbEntity
  8
0
100
AcDbLine
 62
2
  6
CONTINUOUS
 10
125.0954034655
 20
161.4502880244
 11
139.4799234297
 21
161.4502880244
  0
LINE
  5
250
100
AcDbEntity
  8
0
100
AcDbLine
 62
2
  6
CONTINUOUS
 10
137.9799234297
 20
168.2738175244
 11
137.9799234297
 21
177.9189543533
  0
LINE
  5
251
100
AcDbEntity
  8
0
100
AcDbLine
 62
2
  6
CONTINUOUS
 10
137.9799234297
 20
177.9189543533
 11
142.7299234297
 21
177.9189543533
  0
LINE
  5
252
100
AcDbEntity
  8
0
100
AcDbLine
 62
2
  6
CONTINUOUS
 10
137.9799234297
 20
161.4502880244
 11
137.9799234297
 21
156.4502880244
  0
INSERT
  5
253
100
AcDbEntity
  8
0
100
AcDbBlockReference
 62
2
  6
CONTINUOUS
  2
_FILLED
 10
137.9799234297
 20
168.2738175244
 41
3.5
 42
3.5
 43
3.5
 50
270.0
  0
INSERT
  5
254
100
AcDbEntity
  8
0
100
AcDbBlockReference
 62
2
  6
CONTINUOUS
  2
_FILLED
 10
137.9799234297
 20
161.4502880244
 41
3.5
 42
3.5
 43
3.5
 50
90.0
  0
ENDBLK
  5
255
100
AcDbEntity
  8
0
  6
BYBLOCK
 62
0
100
AcDbBlockEnd
  0
BLOCK
  5
256
100
AcDbEntity
  8
0
100
AcDbBlockBegin
 62
2
  6
CONTINUOUS
  2
*D4
 70
65
 10
0.0
 20
0.0
  3
*D4
  1

  0
TEXT
  5
257
100
AcDbEntity
  8
0
100
AcDbText
 62
2
  6
CONTINUOUS
 10
14.1295738235
 20
69.4017270206
  7
STANDARD
 40
2.5
  1
6,9
 72
5
 11
18.9836594266
 21
69.4017270206
100
AcDbText
  0
TEXT
  5
258
100
AcDbEntity
  8
0
100
AcDbText
 62
2
  6
CONTINUOUS
 10
18.9836594266
 20
69.4017270206
  7
STANDARD
 40
2.5
  1
mm
 72
5
 11
24.6548656523
 21
69.4017270206
100
AcDbText
  0
TEXT
  5
259
100
AcDbEntity
  8
0
100
AcDbText
 62
2
  6
CONTINUOUS
 10
18.1179006717
 20
65.6517270206
  7
STANDARD
 40
2.5
  1
1/4"
 72
5
 11
24.6548656523
 21
65.6517270206
100
AcDbText
  0
LINE
  5
25A
100
AcDbEntity
  8
0
100
AcDbLine
 62
2
  6
CONTINUOUS
 10
32.6954234655
 20
85.2738160244
 11
32.6954234655
 21
69.1517270206
  0
LINE
  5
25B
100
AcDbEntity
  8
0
100
AcDbLine
 62
2
  6
CONTINUOUS
 10
39.5816247755
 20
85.9594877108
 11
39.5816247755
 21
69.1517270206
  0
LINE
  5
25C
100
AcDbEntity
  8
0
100
AcDbLine
 62
2
  6
CONTINUOUS
 10
32.6954234655
 20
70.6517270206
 11
25.9048656523
 21
70.6517270206
  0
LINE
  5
25D
100
AcDbEntity
  8
0
100
AcDbLine
 62
2
  6
CONTINUOUS
 10
39.5816247755
 20
70.6517270206
 11
44.5816247755
 21
70.6517270206
  0
INSERT
  5
25E
100
AcDbEntity
  8
0
100
AcDbBlockReference
 62
2
  6
CONTINUOUS
  2
_FILLED
 10
32.6954234655
 20
70.6517270206
 41
3.5
 42
3.5
 43
3.5
  0
INSERT
  5
25F
100
AcDbEntity
  8
0
100
AcDbBlockReference
 62
2
  6
CONTINUOUS
  2
_FILLED
 10
39.5816247755
 20
70.6517270206
 41
3.5
 42
3.5
 43
3.5
 50
180.0
  0
ENDBLK
  5
260
100
AcDbEntity
  8
0
  6
BYBLOCK
 62
0
100
AcDbBlockEnd
  0
BLOCK
  5
261
100
AcDbEntity
  8
0
100
AcDbBlockBegin
 62
2
  6
CONTINUOUS
  2
*D5
 70
65
 10
0.0
 20
0.0
  3
*D5
  1

  0
TEXT
  5
262
100
AcDbEntity
  8
0
100
AcDbText
 62
2
  6
CONTINUOUS
 10
64.4278338175
 20
175.2748198355
  7
STANDARD
 40
2.5
  1
73
 72
5
 11
68.0659661132
 21
175.2748198355
100
AcDbText
  0
TEXT
  5
263
100
AcDbEntity
  8
0
100
AcDbText
 62
2
  6
CONTINUOUS
 10
68.0659661132
 20
175.2748198355
  7
STANDARD
 40
2.5
  1
mm
 72
5
 11
73.7371723389
 21
175.2748198355
100
AcDbText
  0
TEXT
  5
264
100
AcDbEntity
  8
0
100
AcDbText
 62
2
  6
CONTINUOUS
 10
64.2965108603
 20
171.5248198355
  7
STANDARD
 40
2.5
  1
2-7/8"
 72
5
 11
73.8684952961
 21
171.5248198355
100
AcDbText
  0
LINE
  5
265
100
AcDbEntity
  8
0
100
AcDbLine
 62
2
  6
CONTINUOUS
 10
32.6954234655
 20
105.7524686465
 11
32.6954234655
 21
178.0248198355
  0
LINE
  5
266
100
AcDbEntity
  8
0
100
AcDbLine
 62
2
  6
CONTINUOUS
 10
105.4695826909
 20
169.2738175244
 11
105.4695826909
 21
178.0248198355
  0
LINE
  5
267
100
AcDbEntity
  8
0
100
AcDbLine
 62
2
  6
CONTINUOUS
 10
32.6954234655
 20
176.5248198355
 11
63.1778338175
 21
176.5248198355
  0
LINE
  5
268
100
AcDbEntity
  8
0
100
AcDbLine
 62
2
  6
CONTINUOUS
 10
105.4695826909
 20
176.5248198355
 11
74.9871723389
 21
176.5248198355
  0
INSERT
  5
269
100
AcDbEntity
  8
0
100
AcDbBlockReference
 62
2
  6
CONTINUOUS
  2
_FILLED
 10
32.6954234655
 20
176.5248198355
 41
3.5
 42
3.5
 43
3.5
 50
180.0
  0
INSERT
  5
26A
100
AcDbEntity
  8
0
100
AcDbBlockReference
 62
2
  6
CONTINUOUS
  2
_FILLED
 10
105.4695826909
 20
176.5248198355
 41
3.5
 42
3.5
 43
3.5
 50
0.0
  0
ENDBLK
  5
26B
100
AcDbEntity
  8
0
  6
BYBLOCK
 62
0
100
AcDbBlockEnd
  0
BLOCK
  5
26C
100
AcDbEntity
  8
0
100
AcDbBlockBegin
 62
2
  6
CONTINUOUS
  2
*D6
 70
65
 10
0.0
 20
0.0
  3
*D6
  1

  0
TEXT
  5
26D
100
AcDbEntity
  8
0
100
AcDbText
 62
2
  6
CONTINUOUS
 10
20.7329298182
 20
135.2631430854
  7
STANDARD
 40
2.5
  1
64
 72
5
 11
24.371062114
 21
135.2631430854
100
AcDbText
  0
TEXT
  5
26E
100
AcDbEntity
  8
0
100
AcDbText
 62
2
  6
CONTINUOUS
 10
24.371062114
 20
135.2631430854
  7
STANDARD
 40
2.5
  1
mm
 72
5
 11
30.0422683396
 21
135.2631430854
100
AcDbText
  0
TEXT
  5
26F
100
AcDbEntity
  8
0
100
AcDbText
 62
2
  6
CONTINUOUS
 10
20.601606861
 20
131.5131430854
  7
STANDARD
 40
2.5
  1
2-1/2"
 72
5
 11
30.1735912968
 21
131.5131430854
100
AcDbText
  0
LINE
  5
270
100
AcDbEntity
  8
0
100
AcDbLine
 62
2
  6
CONTINUOUS
 10
104.4695826909
 20
168.2738175244
 11
23.8875990789
 21
168.2738175244
  0
LINE
  5
271
100
AcDbEntity
  8
0
100
AcDbLine
 62
2
  6
CONTINUOUS
 10
31.6954234655
 20
104.7524686465
 11
23.8875990789
 21
104.7524686465
  0
LINE
  5
272
100
AcDbEntity
  8
0
100
AcDbLine
 62
2
  6
CONTINUOUS
 10
25.3875990789
 20
168.2738175244
 11
25.3875990789
 21
139.0131430854
  0
LINE
  5
273
100
AcDbEntity
  8
0
100
AcDbLine
 62
2
  6
CONTINUOUS
 10
25.3875990789
 20
104.7524686465
 11
25.3875990789
 21
130.2631430854
  0
INSERT
  5
274
100
AcDbEntity
  8
0
100
AcDbBlockReference
 62
2
  6
CONTINUOUS
  2
_FILLED
 10
25.3875990789
 20
168.2738175244
 41
3.5
 42
3.5
 43
3.5
 50
90.0
  0
INSERT
  5
275
100
AcDbEntity
  8
0
100
AcDbBlockReference
 62
2
  6
CONTINUOUS
  2
_FILLED
 10
25.3875990789
 20
104.7524686465
 41
3.5
 42
3.5
 43
3.5
 50
270.0
  0
ENDBLK
  5
276
100
AcDbEntity
  8
0
  6
BYBLOCK
 62
0
100
AcDbBlockEnd
  0
BLOCK
  5
277
100
AcDbEntity
  8
0
100
AcDbBlockBegin
  2
*T1
 70
1
 10
0.0
 20
0.0
  3
*T1
  1

  0
LINE
  5
278
100
AcDbEntity
  8
0
100
AcDbLine
 62
7
  6
CONTINUOUS
 10
0.0
 20
0.0
 11
148.0
 21
0.0
  0
LINE
  5
279
100
AcDbEntity
  8
0
100
AcDbLine
 62
7
  6
CONTINUOUS
 10
0.0
 20
0.0
 11
0.0
 21
-43.0
  0
LINE
  5
27A
100
AcDbEntity
  8
0
100
AcDbLine
 62
7
  6
CONTINUOUS
 10
45.0
 20
-20.0
 11
148.0
 21
-20.0
  0
LINE
  5
27B
100
AcDbEntity
  8
0
100
AcDbLine
 62
7
  6
CONTINUOUS
 10
45.0
 20
-28.0
 11
148.0
 21
-28.0
  0
LINE
  5
27C
100
AcDbEntity
  8
0
100
AcDbLine
 62
7
  6
CONTINUOUS
 10
0.0
 20
-43.0
 11
148.0
 21
-43.0
  0
LINE
  5
27D
100
AcDbEntity
  8
0
100
AcDbLine
 62
7
  6
CONTINUOUS
 10
45.0
 20
0.0
 11
45.0
 21
-43.0
  0
LINE
  5
27E
100
AcDbEntity
  8
0
100
AcDbLine
 62
7
  6
CONTINUOUS
 10
143.0
 20
0.0
 11
143.0
 21
-20.0
  0
LINE
  5
27F
100
AcDbEntity
  8
0
100
AcDbLine
 62
7
  6
CONTINUOUS
 10
148.0
 20
0.0
 11
148.0
 21
-43.0
  0
TEXT
  5
280
100
AcDbEntity
  8
0
100
AcDbText
 62
7
  6
CONTINUOUS
 10
8.9659749243
 20
-9.175
  7
STANDARD
 40
8.0
  1
O
 72
5
 11
17.370644185
 21
-9.175
100
AcDbText
  0
TEXT
  5
281
100
AcDbEntity
  8
0
100
AcDbText
 62
7
  6
CONTINUOUS
 10
17.370644185
 20
-9.175
  7
STANDARD
 40
5.5
  1
RAC
 72
5
 11
33.9562472979
 21
-9.175
100
AcDbText
  0
TEXT
  5
282
100
AcDbEntity
  8
0
100
AcDbText
 62
7
  6
CONTINUOUS
 10
33.9562472979
 20
-4.425
  7
TEXTSTYLE_2
 40
3.0
  1
®
 72
5
 11
36.0340250757
 21
-4.425
100
AcDbText
  0
TEXT
  5
283
100
AcDbEntity
  8
0
100
AcDbText
 62
7
  6
CONTINUOUS
 10
9.5323389537
 20
-13.825
  7
TEXTSTYLE_2
 40
3.0
  1
D  E  C  O  R
 72
5
 11
34.3878945093
 21
-13.825
100
AcDbText
  0
TEXT
  5
284
100
AcDbEntity
  8
0
100
AcDbText
 62
7
  6
CONTINUOUS
 10
34.3878945093
 20
-13.825
  7
STANDARD
 40
2.5
  1
 
 72
5
 11
35.4676610463
 21
-13.825
100
AcDbText
  0
TEXT
  5
285
100
AcDbEntity
  8
0
100
AcDbText
 62
7
  6
CONTINUOUS
 10
52.8786764706
 20
-4.6
  7
TEXTSTYLE_3
 40
2.7
  1
Part name:
 72
5
 11
71.9375
 21
-4.6
100
AcDbText
  0
TEXT
  5
286
100
AcDbEntity
  8
0
100
AcDbText
 62
7
  6
CONTINUOUS
 10
49.6908613445
 20
-11.35
  7
TEXTSTYLE_3
 40
2.7
  1
Designed by:
 72
5
 11
71.9375
 21
-11.35
100
AcDbText
  0
TEXT
  5
287
100
AcDbEntity
  8
0
100
AcDbText
 62
7
  6
CONTINUOUS
 10
49.3732142857
 20
-18.1
  7
TEXTSTYLE_3
 40
2.7
  1
Designed on:
 72
5
 11
71.9375
 21
-18.1
100
AcDbText
  0
TEXT
  5
288
100
AcDbEntity
  8
0
100
AcDbText
 62
2
  6
CONTINUOUS
 10
74.0625
 20
-4.6
  7
TEXTSTYLE_3
 40
2.7
  1
CB503
 72
5
 11
85.1120798319
 21
-4.6
100
AcDbText
  0
TEXT
  5
289
100
AcDbEntity
  8
0
100
AcDbText
 62
2
  6
CONTINUOUS
 10
74.0625
 20
-11.35
  7
TEXTSTYLE_3
 40
2.7
  1
ORAC
 72
5
 11
83.9209033613
 21
-11.35
100
AcDbText
  0
TEXT
  5
28A
100
AcDbEntity
  8
0
100
AcDbText
 62
2
  6
CONTINUOUS
 10
74.0625
 20
-18.1
  7
TEXTSTYLE_3
 40
2.7
  1
12-Jul-2011
 72
5
 11
94.1763655462
 21
-18.1
100
AcDbText
  0
TEXT
  5
28B
100
AcDbEntity
  8
0
100
AcDbText
 62
2
  6
CONTINUOUS
 10
94.1763655462
 20
-18.1
  7
TEXTSTYLE_3
 40
2.7
  1
 
 72
5
 11
95.1406512605
 21
-18.1
100
AcDbText
  0
TEXT
  5
28C
100
AcDbEntity
  8
0
100
AcDbText
 62
2
  6
CONTINUOUS
 10
146.5625
 20
-16.0
  7
TEXTSTYLE_3
 40
1.5
  1
Version: 
 50
90.0
 72
5
 11
146.5625
 21
-7.5294117647
100
AcDbText
  0
TEXT
  5
28D
100
AcDbEntity
  8
0
100
AcDbText
 62
2
  6
CONTINUOUS
 10
146.5625
 20
-7.5294117647
  7
TEXTSTYLE_3
 40
1.5
  1
1.0
 50
90.0
 72
5
 11
146.5625
 21
-4.5357142857
100
AcDbText
  0
TEXT
  5
28E
100
AcDbEntity
  8
0
100
AcDbText
 62
2
  6
CONTINUOUS
 10
146.5625
 20
-4.5357142857
  7
TEXTSTYLE_3
 40
1.5
  1
 
 50
90.0
 72
5
 11
146.5625
 21
-4.0
100
AcDbText
  0
TEXT
  5
28F
100
AcDbEntity
  8
0
100
AcDbText
 62
7
  6
CONTINUOUS
 10
9.6586134454
 20
-22.75
  7
TEXTSTYLE_3
 40
2.5
  1
Biekorfstraat 32
 72
5
 11
35.3413865546
 21
-22.75
100
AcDbText
  0
TEXT
  5
290
100
AcDbEntity
  8
0
100
AcDbText
 62
7
  6
CONTINUOUS
 10
2.2584033613
 20
-26.5
  7
TEXTSTYLE_3
 40
2.5
  1
8400 Oostende - Belgium
 72
5
 11
42.7415966387
 21
-26.5
100
AcDbText
  0
TEXT
  5
291
100
AcDbEntity
  8
0
100
AcDbText
 62
7
  6
CONTINUOUS
 10
4.2699579832
 20
-30.25
  7
TEXTSTYLE_3
 40
2.5
  1
Tel  +32 (0)59 80 32 52
 72
5
 11
40.7300420168
 21
-30.25
100
AcDbText
  0
TEXT
  5
292
100
AcDbEntity
  8
0
100
AcDbText
 62
7
  6
CONTINUOUS
 10
5.7405462185
 20
-34.0
  7
TEXTSTYLE_3
 40
2.5
  1
www.oracdecor.com
 72
5
 11
39.2594537815
 21
-34.0
100
AcDbText
  0
TEXT
  5
293
100
AcDbEntity
  8
0
100
AcDbText
 62
7
  6
CONTINUOUS
 10
5.5777310924
 20
-37.75
  7
TEXTSTYLE_3
 40
2.5
  1
info@oracdecor.com
 72
5
 11
39.4222689076
 21
-37.75
100
AcDbText
  0
TEXT
  5
294
100
AcDbEntity
  8
0
100
AcDbText
 62
7
  6
CONTINUOUS
 10
46.0625
 20
-23.375
  7
TEXTSTYLE_3
 40
2.5
  1
Unless otherwise specified: all dimensions are in millimeters 
 72
5
 11
143.4259453782
 21
-23.375
100
AcDbText
  0
TEXT
  5
295
100
AcDbEntity
  8
0
100
AcDbText
 62
7
  6
CONTINUOUS
 10
46.0625
 20
-27.125
  7
TEXTSTYLE_3
 40
2.5
  1
and inches, scale 1:1, length 2 meters
 72
5
 11
106.1675420168
 21
-27.125
100
AcDbText
  0
TEXT
  5
296
100
AcDbEntity
  8
0
100
AcDbText
 62
7
  6
CONTINUOUS
 10
46.0625
 20
-31.81
  7
TEXTSTYLE_3
 40
1.8
  1
All information in this document is Orac's exclusive property.  It may in no case 
 72
5
 11
137.5070378151
 21
-31.81
100
AcDbText
  0
TEXT
  5
297
100
AcDbEntity
  8
0
100
AcDbText
 62
7
  6
CONTINUOUS
 10
46.0625
 20
-34.87
  7
TEXTSTYLE_3
 40
1.8
  1
be reproduced, even partly, be communicated to a third party or used for any 
 72
5
 11
136.3272058824
 21
-34.87
100
AcDbText
  0
TEXT
  5
298
100
AcDbEntity
  8
0
100
AcDbText
 62
7
  6
CONTINUOUS
 10
46.0625
 20
-37.93
  7
TEXTSTYLE_3
 40
1.8
  1
possible purpose without ORAC's express written permission. Further legal 
 72
5
 11
132.7952731092
 21
-37.93
100
AcDbText
  0
TEXT
  5
299
100
AcDbEntity
  8
0
100
AcDbText
 62
7
  6
CONTINUOUS
 10
46.0625
 20
-40.99
  7
TEXTSTYLE_3
 40
1.8
  1
information can be found at https://www.oracdecor.com/en/general-sales-conditions
 72
5
 11
145.349894958
 21
-40.99
100
AcDbText
  0
ENDBLK
  5
29A
100
AcDbEntity
  8
0
  6
BYBLOCK
 62
0
100
AcDbBlockEnd
  0
ENDSEC
  0
SECTION
  2
ENTITIES
  0
DIMENSION
  5
29B
100
AcDbEntity
  8
0
100
AcDbDimension
 62
2
  6
CONTINUOUS
  2
*D0
 10
124.6954034655
 20
186.7230590777
 11
78.6954134655
 21
184.8480590777
 70
160
 71
2
 72
2
 41
0.9
 42
91.99998
  1
<>mm\P3-5/8"
  3
DIMSTYLE_1
100
AcDbAlignedDimension
 13
32.6954234655
 23
104.7524686465
 14
124.6954034655
 24
168.2738175244
100
AcDbRotatedDimension
  0
DIMENSION
  5
29C
100
AcDbEntity
  8
0
100
AcDbDimension
 62
2
  6
CONTINUOUS
  2
*D1
 10
13.9036534633
 20
86.2738160244
 11
13.9036534633
 21
125.3988167744
 70
160
 71
2
 72
2
 41
0.9
 42
82.0000015
  1
<>mm\P3-1/4"
  3
DIMSTYLE_1
100
AcDbAlignedDimension
 13
105.4695826909
 23
168.2738175244
 14
32.6954234655
 24
86.2738160244
 50
270.0
100
AcDbRotatedDimension
  0
DIMENSION
  5
29D
100
AcDbEntity
  8
0
100
AcDbDimension
 62
2
  6
CONTINUOUS
  2
*D2
 10
136.2044998359
 20
155.3611758594
 11
90.2045098359
 21
112.4861751094
 70
160
 71
2
 72
2
 41
0.9
 42
123.2395900918
  1
<>mm\P4-7/8"
  3
DIMSTYLE_2
100
AcDbAlignedDimension
 13
32.6954234655
 23
86.2738160244
 14
124.6954034655
 24
168.2738175244
 50
41.7107640289
100
AcDbRotatedDimension
  0
DIMENSION
  5
29E
100
AcDbEntity
  8
0
100
AcDbDimension
 62
2
  6
CONTINUOUS
  2
*D3
 10
137.9799234297
 20
161.4502880244
 11
149.2425693441
 21
176.0439543533
 70
160
 71
1
 72
2
 41
0.9
 42
6.8235295
  1
<>mm\P1/4"
  3
DIMSTYLE_3
100
AcDbAlignedDimension
 13
124.6954034655
 23
168.2738175244
 14
124.0954034655
 24
161.4502880244
 50
270.0
100
AcDbRotatedDimension
  0
DIMENSION
  5
29F
100
AcDbEntity
  8
0
100
AcDbDimension
 62
2
  6
CONTINUOUS
  2
*D4
 10
39.5816247755
 20
70.6517270206
 11
19.3922197379
 21
68.7767270206
 70
160
 71
3
 72
2
 41
0.9
 42
6.88620131
  1
<>mm\P1/4"
  3
DIMSTYLE_3
100
AcDbAlignedDimension
 13
32.6954234655
 23
86.2738160244
 14
39.5816247755
 24
86.9594877108
100
AcDbRotatedDimension
  0
DIMENSION
  5
2A0
100
AcDbEntity
  8
0
100
AcDbDimension
 62
2
  6
CONTINUOUS
  2
*D5
 10
105.4695826909
 20
176.5248198355
 11
69.0825030782
 21
174.6498198355
 70
160
 71
2
 72
2
 41
0.9
 42
72.7741592253
  1
<>mm\P2-7/8"
  3
DIMSTYLE_1
100
AcDbAlignedDimension
 13
32.6954234655
 23
104.7524686465
 14
105.4695826909
 24
168.2738175244
100
AcDbRotatedDimension
  0
DIMENSION
  5
2A1
100
AcDbEntity
  8
0
100
AcDbDimension
 62
2
  6
CONTINUOUS
  2
*D6
 10
25.3875990789
 20
104.7524686465
 11
25.3875990789
 21
134.6381430854
 70
160
 71
2
 72
2
 41
0.9
 42
63.5213488779
  1
<>mm\P2-1/2"
  3
DIMSTYLE_1
100
AcDbAlignedDimension
 13
105.4695826909
 23
168.2738175244
 14
32.6954234655
 24
104.7524686465
 50
270.0
100
AcDbRotatedDimension
  0
ACAD_TABLE
  5
2A2
100
AcDbEntity
  8
0
 62
2
  6
CONTINUOUS
100
AcDbBlockReference
  2
*T1
 10
144.0
 20
48.0
 30
0.0
100
AcDbTable
342
       319
343
221
 11
1.0
 21
0.0
 31
0.0
 90
22
 91
4
 92
4
 93
0
 94
0
 95
0
 96
0
141
15.0
141
5.0
141
8.0
141
15.0
142
45.0
142
28.0
142
70.0
142
5.0
171
1
172
0
173
0
174
0
175
1
176
1
 91
41
178
0
145
0.0
301
CELL_VALUE
 90
4
  1
\A1;O\H5.5;RAC\fCG Triumvirate;\H3.0;\S®^ ;\PD  E  C  O  R\fCG Times;\H2.5; 
304
ACVALUE_END
170
5
140
8.0
 64
7
171
1
172
0
173
0
174
0
175
1
176
2
 91
57
178
0
145
0.0
  7
TEXTSTYLE_3
301
CELL_VALUE
 90
4
  1
Part name:\PDesigned by:\PDesigned on:
304
ACVALUE_END
170
6
140
2.7
 64
7
171
1
172
0
173
0
174
0
175
1
176
2
 91
49
178
0
145
0.0
  7
TEXTSTYLE_3
301
CELL_VALUE
 90
4
  1
CB503\PORAC\P12-Jul-2011 
304
ACVALUE_END
170
4
140
2.7
171
1
172
0
173
0
174
0
175
1
176
2
 91
49
178
0
145
0.0
  7
TEXTSTYLE_3
301
CELL_VALUE
 90
4
  1
Version: 1.0 
304
ACVALUE_END
170
6
140
1.5
171
1
172
0
173
0
174
0
175
1
176
3
 91
57
178
0
145
0.0
  7
TEXTSTYLE_3
301
CELL_VALUE
 90
4
  1
Biekorfstraat 32\P8400 Oostende - Belgium\PTel  +32 (0)59 80 32 52\Pwww.oracdecor.com\Pinfo@oracdecor.com
304
ACVALUE_END
170
5
140
2.5
 64
7
171
1
172
0
173
1
174
0
175
1
176
1
 91
1
178
0
145
0.0
170
1
171
1
172
0
173
1
174
0
175
1
176
1
 91
1
178
0
145
0.0
170
1
171
1
172
0
173
1
174
0
175
1
176
1
 91
1
178
0
145
0.0
170
1
171
1
172
0
173
1
174
0
175
1
176
1
 91
1
178
0
145
0.0
170
1
171
1
172
0
173
0
174
0
175
3
176
1
 91
57
178
0
145
0.0
  7
TEXTSTYLE_3
301
CELL_VALUE
 90
4
  1
Unless otherwise specified: all dimensions are in millimeters \Pand inches, scale 1:1, length 2 meters
304
ACVALUE_END
170
4
140
2.5
 64
7
171
1
172
0
173
1
174
0
175
1
176
1
 91
1
178
0
145
0.0
170
1
171
1
172
0
173
1
174
0
175
1
176
1
 91
1
178
0
145
0.0
170
1
171
1
172
0
173
1
174
0
175
1
176
1
 91
1
178
0
145
0.0
170
1
171
1
172
0
173
0
174
0
175
3
176
1
 91
57
178
0
145
0.0
  7
TEXTSTYLE_3
301
CELL_VALUE
 90
4
  2
All information in this document is Orac's exclusive property.  It may in no case \Pbe reproduced, even partly, be communicated to a third party or used for any \Ppossible purpose without ORAC's express written permission. Further legal \Pinformation
  1
 can be found at https://www.oracdecor.com/en/general-sales-conditions
304
ACVALUE_END
170
4
140
1.8
 64
7
171
1
172
0
173
1
174
0
175
1
176
1
 91
1
178
0
145
0.0
170
1
171
1
172
0
173
1
174
0
175
1
176
1
 91
1
178
0
145
0.0
170
1
  0
LINE
  5
2A3
100
AcDbEntity
  8
0
100
AcDbLine
 62
5
  6
CONTINUOUS
 10
0.0
 20
0.0
 11
0.0
 21
210.0
  0
LINE
  5
2A4
100
AcDbEntity
  8
0
100
AcDbLine
 62
7
  6
CONTINUOUS
 10
5.0
 20
5.0
 11
5.0
 21
195.0
  0
LINE
  5
2A5
100
AcDbEntity
  8
0
100
AcDbLine
 62
5
  6
CONTINUOUS
 10
0.0
 20
0.0
 11
297.0
 21
0.0
  0
LINE
  5
2A6
100
AcDbEntity
  8
0
100
AcDbLine
 62
7
  6
CONTINUOUS
 10
5.0
 20
5.0
 11
292.0
 21
5.0
  0
LINE
  5
2A7
100
AcDbEntity
  8
0
100
AcDbLine
 62
4
  6
CONTINUOUS
 10
148.5
 20
195.0
 11
148.5
 21
205.0
  0
LINE
  5
2A8
100
AcDbEntity
  8
0
100
AcDbLine
 62
7
  6
CONTINUOUS
 10
5.0
 20
195.0
 11
292.0
 21
195.0
  0
LINE
  5
2A9
100
AcDbEntity
  8
0
100
AcDbLine
 62
5
  6
CONTINUOUS
 10
0.0
 20
210.0
 11
297.0
 21
210.0
  0
LINE
  5
2AA
100
AcDbEntity
  8
0
100
AcDbLine
 62
7
  6
CONTINUOUS
 10
292.0
 20
5.0
 11
292.0
 21
195.0
  0
LINE
  5
2AB
100
AcDbEntity
  8
0
100
AcDbLine
 62
5
  6
CONTINUOUS
 10
297.0
 20
0.0
 11
297.0
 21
210.0
  0
LINE
  5
2AC
100
AcDbEntity
  8
0
100
AcDbLine
 62
7
  6
CONTINUOUS
 10
130.1470720848
 20
96.5695792249
 11
130.360502207
 21
105.6639531702
  0
LINE
  5
2AD
100
AcDbEntity
  8
0
100
AcDbLine
 62
7
  6
CONTINUOUS
 10
130.4027907029
 20
107.4658890548
 11
130.5805339148
 21
115.039624283
  0
LINE
  5
2AE
100
AcDbEntity
  8
0
100
AcDbLine
 62
7
  6
CONTINUOUS
 10
130.7030115252
 20
106.834948044
 11
130.4801954631
 21
107.186750939
  0
LINE
  5
2AF
100
AcDbEntity
  8
0
100
AcDbLine
 62
7
  6
CONTINUOUS
 10
192.6765800925
 20
56.0646914851
 11
198.9641209022
 21
55.9210323149
  0
LINE
  5
2B0
100
AcDbEntity
  8
DTM_AXIS
100
AcDbLine
 62
7
  6
CONTINUOUS
 10
192.6765800925
 20
56.0646914851
 11
130.1470720848
 21
96.5695792249
  0
LINE
  5
2B1
100
AcDbEntity
  8
0
100
AcDbLine
 62
7
  6
CONTINUOUS
 10
156.2385360548
 20
119.6538343566
 11
156.1505576089
 21
115.9050247807
  0
LINE
  5
2B2
100
AcDbEntity
  8
0
100
AcDbLine
 62
7
  6
CONTINUOUS
 10
130.450918812
 20
105.9392568651
 11
130.6899996803
 21
106.2805062334
  0
LINE
  5
2B3
100
AcDbEntity
  8
0
100
AcDbLine
 62
7
  6
CONTINUOUS
 10
136.4346128946
 20
96.4259200547
 11
198.9641209022
 21
55.9210323149
  0
LINE
  5
2B4
100
AcDbEntity
  8
0
100
AcDbLine
 62
7
  6
CONTINUOUS
 10
137.0440953352
 20
97.0977142467
 11
199.5736033428
 21
56.5928265068
  0
LINE
  5
2B5
100
AcDbEntity
  8
0
100
AcDbLine
 62
7
  6
CONTINUOUS
 10
213.2784117262
 20
176.3608071001
 11
213.630256026
 21
176.5839093761
  0
LINE
  5
2B6
100
AcDbEntity
  8
DTM_AXIS
100
AcDbLine
 62
7
  6
CONTINUOUS
 10
137.4527820366
 20
120.7827616946
 11
132.7018066164
 21
118.3332306544
  0
LINE
  5
2B7
100
AcDbEntity
  8
0
100
AcDbLine
 62
7
  6
CONTINUOUS
 10
155.4722369552
 20
115.323994809
 11
218.0017449629
 21
74.8191070692
  0
LINE
  5
2B8
100
AcDbEntity
  8
0
100
AcDbLine
 62
7
  6
CONTINUOUS
 10
156.1505576089
 20
115.9050247807
 11
218.6800656165
 21
75.4001370409
  0
LINE
  5
2B9
100
AcDbEntity
  8
0
100
AcDbLine
 62
7
  6
CONTINUOUS
 10
218.7680440624
 20
79.1489466168
 11
156.2385360548
 21
119.6538343566
  0
LINE
  5
2BA
100
AcDbEntity
  8
0
100
AcDbLine
 62
7
  6
CONTINUOUS
 10
136.4346128946
 20
96.4259200547
 11
130.1470720848
 21
96.5695792249
  0
LINE
  5
2BB
100
AcDbEntity
  8
0
100
AcDbLine
 62
7
  6
CONTINUOUS
 10
219.2119173631
 20
79.6342736514
 11
156.6824093555
 21
120.1391613912
  0
LINE
  5
2BC
100
AcDbEntity
  8
0
100
AcDbLine
 62
7
  6
CONTINUOUS
 10
218.6772750588
 20
167.3531455893
 11
218.7283009494
 21
169.5273866255
  0
LINE
  5
2BD
100
AcDbEntity
  8
0
100
AcDbLine
 62
7
  6
CONTINUOUS
 10
218.6800656165
 20
75.4001370409
 11
218.7680440624
 21
79.1489466168
  0
LINE
  5
2BE
100
AcDbEntity
  8
0
100
AcDbLine
 62
7
  6
CONTINUOUS
 10
224.0002592441
 20
176.430953915
 11
223.8542711928
 21
170.210323405
  0
LINE
  5
2BF
100
AcDbEntity
  8
0
100
AcDbLine
 62
7
  6
CONTINUOUS
 10
281.4623476124
 20
129.2178395697
 11
285.7701632343
 21
129.1194136133
  0
LINE
  5
2C0
100
AcDbEntity
  8
DTM_AXIS
100
AcDbLine
 62
7
  6
CONTINUOUS
 10
251.8523911068
 20
105.8806775113
 11
189.3228830992
 21
146.3855652512
  0
LINE
  5
2C1
100
AcDbEntity
  8
0
100
AcDbLine
 62
7
  6
CONTINUOUS
 10
218.9328396048
 20
169.7227273095
 11
223.2406552267
 21
169.6243013531
  0
LINE
  5
2C2
100
AcDbEntity
  8
0
100
AcDbLine
 62
7
  6
CONTINUOUS
 10
218.1761897326
 20
166.8646648499
 11
280.7056977403
 21
126.3597771101
  0
LINE
  5
2C3
100
AcDbEntity
  8
0
100
AcDbLine
 62
7
  6
CONTINUOUS
 10
218.6772750588
 20
167.3531455893
 11
281.2067830664
 21
126.8482578495
  0
LINE
  5
2C4
100
AcDbEntity
  8
0
100
AcDbLine
 62
7
  6
CONTINUOUS
 10
218.7283009494
 20
169.5273866255
 11
281.257808957
 21
129.0224988857
  0
LINE
  5
2C5
100
AcDbEntity
  8
0
100
AcDbLine
 62
7
  6
CONTINUOUS
 10
218.9328396048
 20
169.7227273095
 11
281.4623476124
 21
129.2178395697
  0
LINE
  5
2C6
100
AcDbEntity
  8
0
100
AcDbLine
 62
7
  6
CONTINUOUS
 10
212.747707292
 20
176.3762435953
 11
212.8508786837
 21
176.3094120182
  0
LINE
  5
2C7
100
AcDbEntity
  8
0
100
AcDbLine
 62
7
  6
CONTINUOUS
 10
223.2406552267
 20
169.6243013531
 11
285.7701632343
 21
129.1194136133
  0
LINE
  5
2C8
100
AcDbEntity
  8
0
100
AcDbLine
 62
7
  6
CONTINUOUS
 10
223.8542711928
 20
170.210323405
 11
286.3837792005
 21
129.7054356652
  0
LINE
  5
2C9
100
AcDbEntity
  8
0
100
AcDbLine
 62
7
  6
CONTINUOUS
 10
212.7393017337
 20
176.3632674965
 11
212.7241354097
 21
176.3734713321
  0
LINE
  5
2CA
100
AcDbEntity
  8
0
100
AcDbLine
 62
7
  6
CONTINUOUS
 10
212.383134314
 20
176.6124038982
 11
212.3679979725
 21
176.6225938039
  0
LINE
  5
2CB
100
AcDbEntity
  8
0
100
AcDbLine
 62
7
  6
CONTINUOUS
 10
212.383134314
 20
176.6124038982
 11
212.7241354097
 21
176.3734713321
  0
LINE
  5
2CC
100
AcDbEntity
  8
DTM_AXIS
100
AcDbLine
 62
7
  6
CONTINUOUS
 10
224.0002592441
 20
176.430953915
 11
286.5297672517
 21
135.9260661752
  0
LINE
  5
2CD
100
AcDbEntity
  8
0
100
AcDbLine
 62
7
  6
CONTINUOUS
 10
204.7891300739
 20
176.8698941872
 11
212.1079659905
 21
176.7026717506
  0
LINE
  5
2CE
100
AcDbEntity
  8
0
100
AcDbLine
 62
7
  6
CONTINUOUS
 10
213.9093640191
 20
176.6615129965
 11
224.0002592441
 21
176.430953915
  0
LINE
  5
2CF
100
AcDbEntity
  8
0
100
AcDbLine
 62
7
  6
CONTINUOUS
 10
281.2067830664
 20
126.8482578495
 11
281.257808957
 21
129.0224988857
  0
LINE
  5
2D0
100
AcDbEntity
  8
0
100
AcDbLine
 62
7
  6
CONTINUOUS
 10
286.3837792005
 20
129.7054356652
 11
286.5297672517
 21
135.9260661752
  0
LINE
  5
2D1
100
AcDbEntity
  8
0
100
AcDbLine
 62
7
  6
CONTINUOUS
 10
33.0105234001
 20
96.5511661225
 11
32.7793983184
 21
96.8978537451
  0
LINE
  5
2D2
100
AcDbEntity
  8
0
100
AcDbLine
 62
7
  6
CONTINUOUS
 10
32.6954234655
 20
86.2738160244
 11
32.6954234655
 21
95.3724282055
  0
LINE
  5
2D3
100
AcDbEntity
  8
0
100
AcDbLine
 62
7
  6
CONTINUOUS
 10
32.6954234655
 20
97.1752038432
 11
32.6954234655
 21
104.7524686465
  0
LINE
  5
2D4
100
AcDbEntity
  8
0
100
AcDbLine
 62
7
  6
CONTINUOUS
 10
38.9877726372
 20
86.2738160244
 11
32.6954234655
 21
86.2738160244
  0
LINE
  5
2D5
100
AcDbEntity
  8
0
100
AcDbLine
 62
7
  6
CONTINUOUS
 10
58.2509734655
 20
109.9525538359
 11
58.2509734655
 21
106.2019972086
  0
LINE
  5
2D6
100
AcDbEntity
  8
0
100
AcDbLine
 62
7
  6
CONTINUOUS
 10
32.7793983184
 20
95.6497783036
 11
33.0105234001
 21
95.9964659263
  0
LINE
  5
2D7
100
AcDbEntity
  8
0
100
AcDbLine
 62
7
  6
CONTINUOUS
 10
113.9727535636
 20
167.9587175898
 11
114.3194411863
 21
168.1898426715
  0
LINE
  5
2D8
100
AcDbEntity
  8
DTM_AXIS
100
AcDbLine
 62
7
  6
CONTINUOUS
 10
39.4344284338
 20
110.6522108898
 11
34.7398674655
 21
108.0943079128
  0
LINE
  5
2D9
100
AcDbEntity
  8
0
100
AcDbLine
 62
7
  6
CONTINUOUS
 10
119.7842934655
 20
161.4502880244
 11
124.0954034655
 21
161.4502880244
  0
LINE
  5
2DA
100
AcDbEntity
  8
0
100
AcDbLine
 62
7
  6
CONTINUOUS
 10
119.5842934655
 20
159.0750337302
 11
119.5842934655
 21
161.2502880244
  0
LINE
  5
2DB
100
AcDbEntity
  8
0
100
AcDbLine
 62
7
  6
CONTINUOUS
 10
105.4695826909
 20
168.2738175244
 11
112.7940156467
 21
168.2738175244
  0
LINE
  5
2DC
100
AcDbEntity
  8
0
100
AcDbLine
 62
7
  6
CONTINUOUS
 10
114.5967912844
 20
168.2738175244
 11
124.6954034655
 21
168.2738175244
  0
LINE
  5
2DD
100
AcDbEntity
  8
0
100
AcDbLine
 62
7
  6
CONTINUOUS
 10
124.6954034655
 20
168.2738175244
 11
124.6954034655
 21
162.0502880244
  0
LINE
  5
2DE
100
AcDbEntity
  8
0
100
AcDbLine
 62
7
  6
CONTINUOUS
 10
113.0713657448
 20
168.1898426715
 11
113.4180533674
 21
167.9587175898
  0
ARC
  5
2DF
100
AcDbEntity
  8
0
100
AcDbCircle
 62
7
  6
CONTINUOUS
 10
215.8624372797
 20
58.5535895518
 40
16.4061355284
100
AcDbArc
 50
82.507230972
 51
186.8639348685
  0
ARC
  5
2E0
100
AcDbEntity
  8
0
100
AcDbCircle
 62
7
  6
CONTINUOUS
 10
153.3329292719
 20
99.0584772914
 40
16.4061355284
100
AcDbArc
 50
82.5072309715
 51
186.8639348679
  0
ARC
  5
2E1
100
AcDbEntity
  8
0
100
AcDbCircle
 62
7
  6
CONTINUOUS
 10
285.7836951277
 20
129.7194968342
 40
0.6002443144
100
AcDbArc
 50
268.7081975068
 51
358.6576910216
  0
ARC
  5
2E2
100
AcDbEntity
  8
0
100
AcDbCircle
 62
7
  6
CONTINUOUS
 10
223.25418712
 20
170.224384574
 40
0.6002443145
100
AcDbArc
 50
268.7081975108
 51
358.6576910179
  0
ARC
  5
2E3
100
AcDbEntity
  8
0
100
AcDbCircle
 62
7
  6
CONTINUOUS
 10
198.977656349
 20
56.5211137303
 40
0.6002409807
100
AcDbArc
 50
268.7078545117
 51
6.8616464256
  0
ARC
  5
2E4
100
AcDbEntity
  8
0
100
AcDbCircle
 62
7
  6
CONTINUOUS
 10
136.4481483425
 20
97.0260014714
 40
0.6002409809
100
AcDbArc
 50
268.70785441
 51
6.8616463086
  0
ARC
  5
2E5
100
AcDbEntity
  8
0
100
AcDbCircle
 62
7
  6
CONTINUOUS
 10
218.0800221539
 20
75.4141691101
 40
0.6001998953
100
AcDbArc
 50
262.5060775063
 51
358.6603773135
  0
ARC
  5
2E6
100
AcDbEntity
  8
0
100
AcDbCircle
 62
7
  6
CONTINUOUS
 10
155.5505141464
 20
115.9190568498
 40
0.6001998953
100
AcDbArc
 50
262.5060774954
 51
358.6603773253
  0
ARC
  5
2E7
100
AcDbEntity
  8
0
100
AcDbCircle
 62
7
  6
CONTINUOUS
 10
130.860630765
 20
105.6521978508
 40
0.500266691
100
AcDbArc
 50
144.9835240522
 51
178.653533802
  0
ARC
  5
2E8
100
AcDbEntity
  8
0
100
AcDbCircle
 62
7
  6
CONTINUOUS
 10
219.2681458299
 20
79.1372104457
 40
0.500237824
100
AcDbArc
 50
96.453940763
 51
178.6556542857
  0
ARC
  5
2E9
100
AcDbEntity
  8
0
100
AcDbCircle
 62
7
  6
CONTINUOUS
 10
156.7386378223
 20
119.6420981855
 40
0.500237824
100
AcDbArc
 50
96.4539407641
 51
178.6556542867
  0
ARC
  5
2EA
100
AcDbEntity
  8
0
100
AcDbCircle
 62
7
  6
CONTINUOUS
 10
212.0961775621
 20
176.2026856974
 40
0.5002155702
100
AcDbArc
 50
57.0836818834
 51
66.2086865927
  0
ARC
  5
2EB
100
AcDbEntity
  8
0
100
AcDbCircle
 62
7
  6
CONTINUOUS
 10
280.7067074162
 20
126.8599790753
 40
0.5002096312
100
AcDbArc
 50
269.8843465364
 51
358.6572955009
  0
ARC
  5
2EC
100
AcDbEntity
  8
0
100
AcDbCircle
 62
7
  6
CONTINUOUS
 10
218.1771994085
 20
167.3648668151
 40
0.5002096312
100
AcDbArc
 50
269.8843465409
 51
358.6572954966
  0
ARC
  5
2ED
100
AcDbEntity
  8
0
100
AcDbCircle
 62
7
  6
CONTINUOUS
 10
130.2805135367
 20
106.567489794
 40
0.5000384643
100
AcDbArc
 50
324.9757580314
 51
32.3354585514
  0
ARC
  5
2EE
100
AcDbEntity
  8
0
100
AcDbCircle
 62
7
  6
CONTINUOUS
 10
213.8979749035
 20
176.1617553377
 40
0.4998874168
100
AcDbArc
 50
88.6944965952
 51
122.3817848943
  0
ARC
  5
2EF
100
AcDbEntity
  8
0
100
AcDbCircle
 62
7
  6
CONTINUOUS
 10
213.010726281
 20
176.7828749177
 40
0.4997966989
100
AcDbArc
 50
257.4588676008
 51
302.3838418247
  0
ARC
  5
2F0
100
AcDbEntity
  8
0
100
AcDbCircle
 62
7
  6
CONTINUOUS
 10
130.9024182763
 20
107.4541341578
 40
0.4997658349
100
AcDbArc
 50
178.6522325909
 51
212.3450644658
  0
ARC
  5
2F1
100
AcDbEntity
  8
0
100
AcDbCircle
 62
7
  6
CONTINUOUS
 10
281.4578349438
 20
129.0178139646
 40
0.2000790106
100
AcDbArc
 50
88.7076003873
 51
178.658288652
  0
ARC
  5
2F2
100
AcDbEntity
  8
0
100
AcDbCircle
 62
7
  6
CONTINUOUS
 10
218.9283269362
 20
169.5227017044
 40
0.2000790106
100
AcDbArc
 50
88.7076003919
 51
178.6582886475
  0
ARC
  5
2F3
100
AcDbEntity
  8
0
100
AcDbCircle
 62
7
  6
CONTINUOUS
 10
55.8139004295
 20
89.3012262358
 40
16.4003204916
100
AcDbArc
 50
83.7964424925
 51
188.2091006378
  0
ARC
  5
2F4
100
AcDbEntity
  8
0
100
AcDbCircle
 62
7
  6
CONTINUOUS
 10
38.9877726372
 20
86.8738160244
 40
0.6
100
AcDbArc
 50
270.0
 51
8.2091006378
  0
ARC
  5
2F5
100
AcDbEntity
  8
0
100
AcDbCircle
 62
7
  6
CONTINUOUS
 10
57.6509734655
 20
106.2019972086
 40
0.6
100
AcDbArc
 50
263.7964424925
 51
360.0
  0
ARC
  5
2F6
100
AcDbEntity
  8
0
100
AcDbCircle
 62
7
  6
CONTINUOUS
 10
124.0954034655
 20
162.0502880244
 40
0.6
100
AcDbArc
 50
270.0
 51
360.0
  0
ARC
  5
2F7
100
AcDbEntity
  8
0
100
AcDbCircle
 62
7
  6
CONTINUOUS
 10
32.5944982529
 20
96.2738160244
 40
0.5
100
AcDbArc
 50
326.309932474
 51
33.690067526
  0
ARC
  5
2F8
100
AcDbEntity
  8
0
100
AcDbCircle
 62
7
  6
CONTINUOUS
 10
113.6954034655
 20
168.3747427369
 40
0.5
100
AcDbArc
 50
236.309932474
 51
303.690067526
  0
ARC
  5
2F9
100
AcDbEntity
  8
0
100
AcDbCircle
 62
7
  6
CONTINUOUS
 10
58.7509734655
 20
109.9525538359
 40
0.5
100
AcDbArc
 50
97.7491076468
 51
180.0
  0
ARC
  5
2FA
100
AcDbEntity
  8
0
100
AcDbCircle
 62
7
  6
CONTINUOUS
 10
112.7940156467
 20
167.7738175244
 40
0.5
100
AcDbArc
 50
56.309932474
 51
90.0
  0
ARC
  5
2FB
100
AcDbEntity
  8
0
100
AcDbCircle
 62
7
  6
CONTINUOUS
 10
33.1954234655
 20
97.1752038432
 40
0.5
100
AcDbArc
 50
180.0
 51
213.690067526
  0
ARC
  5
2FC
100
AcDbEntity
  8
0
100
AcDbCircle
 62
7
  6
CONTINUOUS
 10
33.1954234655
 20
95.3724282055
 40
0.5
100
AcDbArc
 50
146.309932474
 51
180.0
  0
ARC
  5
2FD
100
AcDbEntity
  8
0
100
AcDbCircle
 62
7
  6
CONTINUOUS
 10
119.0842934655
 20
159.0750337302
 40
0.5
100
AcDbArc
 50
271.1765581161
 51
360.0
  0
ARC
  5
2FE
100
AcDbEntity
  8
0
100
AcDbCircle
 62
7
  6
CONTINUOUS
 10
114.5967912844
 20
167.7738175244
 40
0.5
100
AcDbArc
 50
90.0
 51
123.690067526
  0
ARC
  5
2FF
100
AcDbEntity
  8
0
100
AcDbCircle
 62
7
  6
CONTINUOUS
 10
119.7842934655
 20
161.2502880244
 40
0.2
100
AcDbArc
 50
90.0
 51
180.0
  0
SPLINE
  5
300
100
AcDbEntity
  8
0
100
AcDbSpline
 62
7
  6
CONTINUOUS
 70
0
 71
3
 72
8
 73
4
 74
0
 42
0.0000001
 43
0.0000001
 44
0.0000000001
 40
0.0
 40
0.0
 40
0.0
 40
0.0
 40
1.0
 40
1.0
 40
1.0
 40
1.0
 10
212.297967812
 20
176.6603933679
 30
0.0
 10
212.2385941948
 20
176.6865576268
 30
0.0
 10
212.1728319934
 20
176.7011896773
 30
0.0
 10
212.1079659905
 20
176.7026717506
 30
0.0
  0
SPLINE
  5
301
100
AcDbEntity
  8
0
100
AcDbSpline
 62
7
  6
CONTINUOUS
 70
0
 71
3
 72
8
 73
4
 74
0
 42
0.0000001
 43
0.0000001
 44
0.0000000001
 40
0.0
 40
0.0
 40
0.0
 40
0.0
 40
1.0
 40
1.0
 40
1.0
 40
1.0
 10
212.9022002074
 20
176.2950031808
 30
0.0
 10
212.8447306072
 20
176.3077912207
 30
0.0
 10
212.7887198819
 20
176.3312653769
 30
0.0
 10
212.7392958966
 20
176.3632584791
 30
0.0
  0
ELLIPSE
  5
302
100
AcDbEntity
  8
0
100
AcDbEllipse
 62
7
  6
CONTINUOUS
 10
280.6939340494
 20
98.0408755509
 30
0.0
 11
29.9927732498
 21
-0.5329657406
 31
0.0
 40
0.9440264137
 41
1.5871777567
 42
2.8799107937
  0
ELLIPSE
  5
303
100
AcDbEntity
  8
0
100
AcDbEllipse
 62
7
  6
CONTINUOUS
 10
214.5235810997
 20
116.0275159956
 30
0.0
 11
38.8188155001
 21
-0.6898027928
 31
0.0
 40
0.9440264137
 41
-1.4329694496
 42
-0.2616818599
  0
ELLIPSE
  5
304
100
AcDbEntity
  8
DTM_AXIS
100
AcDbEllipse
 62
7
  6
CONTINUOUS
 10
204.6986119624
 20
173.0128680706
 30
0.0
 11
4.0861911053
 21
-0.0726108203
 31
0.0
 40
0.9440264137
 41
1.5654190266
 42
2.5906659084
  0
ELLIPSE
  5
305
100
AcDbEntity
  8
DTM_AXIS
100
AcDbEllipse
 62
7
  6
CONTINUOUS
 10
198.6686111627
 20
176.6549079576
 30
0.0
 11
3.064643329
 21
-0.0544581152
 31
0.0
 40
0.9440264137
 41
-1.0623984752
 42
-0.5509267452
  0
ELLIPSE
  5
306
100
AcDbEntity
  8
DTM_AXIS
100
AcDbEllipse
 62
7
  6
CONTINUOUS
 10
224.7127063772
 20
130.6881382909
 30
0.0
 11
52.0989365922
 21
-0.9257879587
 31
0.0
 40
0.9440264137
 41
2.0791941784
 42
2.8001103943
  0
ELLIPSE
  5
307
100
AcDbEntity
  8
DTM_AXIS
100
AcDbEllipse
 62
7
  6
CONTINUOUS
 10
134.6662973498
 20
114.9462718257
 30
0.0
 11
4.0861911053
 21
-0.0726108203
 31
0.0
 40
0.9440264137
 41
2.0890178022
 42
3.1362153534
  0
ELLIPSE
  5
308
100
AcDbEntity
  8
DTM_AXIS
100
AcDbEllipse
 62
7
  6
CONTINUOUS
 10
129.1036964195
 20
135.1773367164
 30
0.0
 11
17.3663121974
 21
-0.3085959862
 31
0.0
 40
0.9440264137
 41
-1.0525748514
 42
-0.7322213481
  0
ELLIPSE
  5
309
100
AcDbEntity
  8
DTM_AXIS
100
AcDbEllipse
 62
7
  6
CONTINUOUS
 10
166.5166898842
 20
102.2672106247
 30
0.0
 11
33.7110766185
 21
-0.5990392674
 31
0.0
 40
0.9440264137
 41
1.8351658595
 42
2.4093713055
  0
ELLIPSE
  5
30A
100
AcDbEntity
  8
DTM_AXIS
100
AcDbEllipse
 62
7
  6
CONTINUOUS
 10
151.9940730921
 20
156.5324037354
 30
0.0
 11
25.5386944079
 21
-0.4538176268
 31
0.0
 40
0.9440264137
 41
-1.3064267941
 42
-0.3414822593
  0
ELLIPSE
  5
30B
100
AcDbEntity
  8
0
100
AcDbEllipse
 62
7
  6
CONTINUOUS
 10
218.1644260418
 20
138.5457632907
 30
0.0
 11
29.9927732498
 21
-0.5329657406
 31
0.0
 40
0.9440264137
 41
1.5871777567
 42
2.8799107937
  0
ELLIPSE
  5
30C
100
AcDbEntity
  8
0
100
AcDbEllipse
 62
7
  6
CONTINUOUS
 10
151.9940730921
 20
156.5324037354
 30
0.0
 11
38.8188155001
 21
-0.6898027928
 31
0.0
 40
0.9440264137
 41
-1.4329694496
 42
-0.2616818599
  0
ELLIPSE
  5
30D
100
AcDbEntity
  8
DTM_AXIS
100
AcDbEllipse
 62
7
  6
CONTINUOUS
 10
105.4695826909
 20
164.4149939244
 30
0.0
 11
4.088888
 21
0.0
 31
0.0
 40
0.9437342378
 41
1.5707963268
 42
2.5960432085
  0
ELLIPSE
  5
30E
100
AcDbEntity
  8
DTM_AXIS
100
AcDbEllipse
 62
7
  6
CONTINUOUS
 10
99.3527123124
 20
167.9190131685
 30
0.0
 11
3.066666
 21
0.0
 31
0.0
 40
0.9437342378
 41
-1.057021175
 42
-0.545549445
  0
ELLIPSE
  5
30F
100
AcDbEntity
  8
DTM_AXIS
100
AcDbEllipse
 62
7
  6
CONTINUOUS
 10
126.4817678002
 20
122.5504875308
 30
0.0
 11
52.133322
 21
-0.0
 31
0.0
 40
0.9437342378
 41
2.0845714786
 42
2.8054876944
  0
ELLIPSE
  5
310
100
AcDbEntity
  8
DTM_AXIS
100
AcDbEllipse
 62
7
  6
CONTINUOUS
 10
53.1398634655
 20
146.7315647197
 30
0.0
 11
25.55555
 21
-0.0
 31
0.0
 40
0.9437342378
 41
-1.3010494939
 42
-0.3361049591
  0
ELLIPSE
  5
311
100
AcDbEntity
  8
DTM_AXIS
100
AcDbEllipse
 62
7
  6
CONTINUOUS
 10
68.9396038403
 20
92.8019708204
 30
0.0
 11
33.733326
 21
-0.0
 31
0.0
 40
0.9437342378
 41
1.8405431597
 42
2.4147486057
  0
ELLIPSE
  5
312
100
AcDbEntity
  8
DTM_AXIS
100
AcDbEllipse
 62
7
  6
CONTINUOUS
 10
30.7455414338
 20
124.8550277717
 30
0.0
 11
17.377774
 21
-0.0
 31
0.0
 40
0.9437342378
 41
-1.0471975512
 42
-0.7268440479
  0
ELLIPSE
  5
313
100
AcDbEntity
  8
DTM_AXIS
100
AcDbEllipse
 62
7
  6
CONTINUOUS
 10
36.7843114655
 20
104.7524686465
 30
0.0
 11
4.088888
 21
0.0
 31
0.0
 40
0.9437342378
 41
2.0943951024
 42
3.1415926536
  0
ELLIPSE
  5
314
100
AcDbEntity
  8
0
100
AcDbEllipse
 62
7
  6
CONTINUOUS
 10
119.7475440014
 20
130.2579552479
 30
0.0
 11
30.0125685433
 21
0.0
 31
0.0
 40
0.9437342378
 41
1.5925550569
 42
2.8852880938
  0
ELLIPSE
  5
315
100
AcDbEntity
  8
0
100
AcDbEllipse
 62
7
  6
CONTINUOUS
 10
53.1398634655
 20
146.7315647197
 30
0.0
 11
38.844436
 21
-0.0
 31
0.0
 40
0.9437342378
 41
-1.4275921494
 42
-0.2563045597
  0
ENDSEC
  0
SECTION
  2
OBJECTS
  0
DICTIONARY
  5
C
100
AcDbDictionary
280
0
281
1
  3
ACAD_GROUP
350
D
  3
ACAD_MLINESTYLE
350
17
  3
ACAD_LAYOUT
350
1A
  3
ACAD_PLOTSETTINGS
350
19
  3
ACAD_PLOTSTYLENAME
350
E
  3
ACAD_TABLESTYLE
350
       316
  0
DICTIONARY
  5
D
102
{ACAD_REACTORS
330
C
102
}
100
AcDbDictionary
280
0
281
1
  0
ACDBDICTIONARYWDFLT
  5
E
102
{ACAD_REACTORS
330
C
102
}
100
AcDbDictionary
281
1
  3
Normal
350
F
100
AcDbDictionaryWithDefault
340
F
  0
DICTIONARY
  5
17
102
{ACAD_REACTORS
330
C
102
}
100
AcDbDictionary
280
0
281
1
  3
Standard
350
18
  0
DICTIONARY
  5
316
330
C
100
AcDbDictionary
281
1
  3
Standard
350
       319
  3
Standard1
350
       31A
  0
DICTIONARY
  5
19
102
{ACAD_REACTORS
330
C
102
}
100
AcDbDictionary
281
1
  0
DICTIONARY
  5
1A
102
{ACAD_REACTORS
330
C
102
}
100
AcDbDictionary
281
1
  3
Model
350
317
  3
Layout1
350
318
  0
ACDBPLACEHOLDER
  5
F
102
{ACAD_REACTORS
330
E
102
}
  0
MLINESTYLE
  5
18
102
{ACAD_REACTORS
330
17
102
}
100
AcDbMlineStyle
  2
STANDARD
 70
0
  3

 62
256
 51
90.0
 52
90.0
 71
2
 49
0.5
 62
256
  6
BYLAYER
 49
-0.5
 62
256
  6
BYLAYER
  0
LAYOUT
  5
317
102
{ACAD_REACTORS
330
1A
102
}
100
AcDbPlotSettings
  1

  2
none_device
  4
ISO_A4_(297.00_x_210.00_MM)
  6

 40
0.0
 41
0.0
 42
0.0
 43
0.0
 44
297.0
 45
210.0
 46
0.0
 47
0.0
 48
0.0
 49
0.0
140
0.0
141
0.0
142
1.0
143
1.0
 70
1024
 72
1
 73
0
 74
0
  7

 75
0
147
1.0
148
0.0
149
0.0
100
AcDbLayout
  1
Model
 70
0
 71
0
 10
0.0
 20
0.0
 11
297.0
 21
210.0
 12
0.0
 22
0.0
 32
0.0
 14
0.0
 24
0.0
 34
0.0
 15
0.0
 25
0.0
 35
0.0
146
0.0
 13
0.0
 23
0.0
 33
0.0
 16
1.0
 26
0.0
 36
0.0
 17
0.0
 27
1.0
 37
0.0
 76
0
330
217
345
0
346
0
  0
LAYOUT
  5
318
102
{ACAD_REACTORS
330
1A
102
}
100
AcDbPlotSettings
  1

  2
none_device
  4
ISO_A4_(297.00_x_210.00_MM)
  6

 40
0.0
 41
0.0
 42
0.0
 43
0.0
 44
297.0
 45
210.0
 46
0.0
 47
0.0
 48
0.0
 49
0.0
140
0.0
141
0.0
142
1.0
143
1.0
 70
0
 72
1
 73
0
 74
0
  7

 75
0
147
1.0
148
0.0
149
0.0
100
AcDbLayout
  1
Layout1
 70
0
 71
1
 10
0.0
 20
0.0
 11
297.0
 21
210.0
 12
0.0
 22
0.0
 32
0.0
 14
0.0
 24
0.0
 34
0.0
 15
0.0
 25
0.0
 35
0.0
146
0.0
 13
0.0
 23
0.0
 33
0.0
 16
1.0
 26
0.0
 36
0.0
 17
0.0
 27
1.0
 37
0.0
 76
0
330
218
345
0
346
0
  0
TABLESTYLE
  5
319
102
{ACAD_REACTORS
330
316
330
2A2
102
}
330
316
100
AcDbTableStyle
  3
Standard
 70
0
 71
0
 40
0.06
 41
0.06
280
1
281
1
  7
Standard
140
0.18
170
1
 62
0
 63
7
283
0
  7
Standard
140
0.18
170
1
 62
0
 63
7
283
0
  7
Standard
140
0.18
170
1
 62
0
 63
7
283
0
  0
TABLESTYLE
  5
31A
102
{ACAD_REACTORS
330
316
102
}
330
316
100
AcDbTableStyle
  3
Standard1
 70
1
 71
0
 40
0.06
 41
0.06
280
1
281
1
  7
Standard
140
0.18
170
1
 62
0
 63
7
283
0
  7
Standard
140
0.18
170
1
 62
0
 63
7
283
0
  7
Standard
140
0.18
170
1
 62
0
 63
7
283
0
  0
ENDSEC
  0
EOF
