999
DXF file: O:\ORAC_PRODUCTEN\ORAC_LIJN6\C-Type\C362\c362-prod-mm.dxf
999
Pro/ENGINEER 2021404 by Parametric Technology Corporation
  0
SECTION
  2
HEADER
  9
$ACADVER
  1
AC1024
  9
$DWGCODEPAGE
  3
ANSI_1252
  9
$EXTMAX
 10
297.0
 20
210.0
 30
0.0
  9
$EXTMIN
 10
0.0
 20
0.0
 30
0.0
  9
$LIMMIN
 10
0.0
 20
0.0
  9
$LIMMAX
 10
297.0
 20
210.0
  9
$VIEWCTR
 10
148.5
 20
105.0
  9
$VIEWSIZE
 40
210.0
  9
$CLAYER
  8
0
  9
$LTSCALE
 40
16.335
  9
$CELTYPE
  6
BYLAYER
  9
$DIMSCALE
 40
1.0
  9
$DIMASZ
 40
3.5
  9
$DIMEXO
 40
1.0
  9
$DIMDLI
 40
11.286
  9
$DIMEXE
 40
1.5
  9
$DIMCEN
 40
2.673
  9
$DIMLFAC
 40
1.0
  9
$DIMBLK
  1
_FILLED
  9
$DIMALT
 70
0
  9
$DIMALTF
 40
0.0393700787
  9
$DIMTXT
 40
2.5
  9
$DIMTOL
 70
1
  9
$DIMLIM
 70
0
  9
$DIMTFAC
 40
1.0
  9
$DIMTP
 40
0.001
  9
$DIMTM
 40
0.001
  9
$DIMGAP
 40
0.625
  9
$DIMDSEP
 70
44
  9
$AUNITS
 70
0
  9
$PDMODE
 70
3
  9
$PDSIZE
 40
8.0
  9
$HANDSEED
  5
338
  9
$TILEMODE
 70
0
  9
$MEASUREMENT
 70
1
  9
$INSUNITS
 70
4
  0
ENDSEC
  0
SECTION
  2
CLASSES
  0
CLASS
  1
ACDBDICTIONARYWDFLT
  2
AcDbDictionaryWithDefault
  3
AutoCAD 2000
 90
0
 91
1
280
0
281
0
  0
CLASS
  1
ACDBPLACEHOLDER
  2
AcDbPlaceHolder
  3
AutoCAD 2000
 90
0
 91
1
280
0
281
0
  0
CLASS
  1
LAYOUT
  2
AcDbLayout
  3
AutoCAD 2000
 90
0
 91
0
280
0
281
0
  0
CLASS
  1
TABLESTYLE
  2
AcDbTableStyle
  3
ObjectDBX Classes
 90
2047
 91
1
280
0
281
0
  0
CLASS
  1
ACAD_TABLE
  2
AcDbTable
  3
ObjectDBX Classes
 90
1025
 91
1
280
0
281
1
  0
ENDSEC
  0
SECTION
  2
TABLES
  0
TABLE
  2
VPORT
  5
8
100
AcDbSymbolTable
 70
2
  0
VPORT
  5
1F4
100
AcDbSymbolTableRecord
100
AcDbViewportTableRecord
  2
*ACTIVE
 70
0
 10
0.0
 20
0.0
 11
1.0
 21
1.0
 12
148.5
 22
105.0
 13
0.0
 23
0.0
 14
1.0
 24
1.0
 15
0.0
 25
0.0
 16
0.0
 26
0.0
 36
1.0
 17
0.0
 27
0.0
 37
0.0
 40
210.0
 41
1.4142857143
 42
50.0
 43
0.0
 44
0.0
 50
0.0
 51
0.0
 71
0
 72
100
 73
1
 74
1
 75
0
 76
0
 77
0
 78
0
  0
ENDTAB
  0
TABLE
  2
LTYPE
  5
5
100
AcDbSymbolTable
 70
6
  0
LTYPE
  5
14
100
AcDbSymbolTableRecord
100
AcDbLinetypeTableRecord
  2
BYBLOCK
 70
0
  3

 72
65
 73
0
 40
0.0
  0
LTYPE
  5
15
100
AcDbSymbolTableRecord
100
AcDbLinetypeTableRecord
  2
BYLAYER
 70
0
  3

 72
65
 73
0
 40
0.0
  0
LTYPE
  5
16
100
AcDbSymbolTableRecord
100
AcDbLinetypeTableRecord
  2
CONTINUOUS
 70
64
  3
Solid line
 72
65
 73
0
 40
0.0
  0
LTYPE
  5
1F5
100
AcDbSymbolTableRecord
100
AcDbLinetypeTableRecord
  2
CENTER
 70
64
  3
____ _ ____ _ ____ _ ____ _ ____ _ ____ _ ____
 72
65
 73
4
 40
0.6
 49
0.375
 74
0
 49
-0.075
 74
0
 49
0.075
 74
0
 49
-0.075
 74
0
  0
LTYPE
  5
1F6
100
AcDbSymbolTableRecord
100
AcDbLinetypeTableRecord
  2
HIDDEN
 70
64
  3
- - - - - - - - - - - - - - - - - - - -
 72
65
 73
2
 40
0.2
 49
0.1
 74
0
 49
-0.1
 74
0
  0
LTYPE
  5
1F7
100
AcDbSymbolTableRecord
100
AcDbLinetypeTableRecord
  2
PHANTOM
 70
64
  3
_____ _ _ _____ _ _ _____ _ _ _____
 72
65
 73
6
 40
0.8
 49
0.45
 74
0
 49
-0.05
 74
0
 49
0.1
 74
0
 49
-0.05
 74
0
 49
0.1
 74
0
 49
-0.05
 74
0
  0
LTYPE
  5
1F8
100
AcDbSymbolTableRecord
100
AcDbLinetypeTableRecord
  2
DOT
 70
64
  3
. . . . . . . . . . . . . . . . . . . .
 72
65
 73
2
 40
0.2
 49
0.1
 74
0
 49
-0.1
 74
0
  0
LTYPE
  5
1F9
100
AcDbSymbolTableRecord
100
AcDbLinetypeTableRecord
  2
DASHED
 70
64
  3
- - - - - - - - - - - - - - - - - - - -
 72
65
 73
2
 40
0.2
 49
0.1
 74
0
 49
-0.1
 74
0
  0
ENDTAB
  0
TABLE
  2
LAYER
  5
2
100
AcDbSymbolTable
 70
36
  0
LAYER
  5
10
100
AcDbSymbolTableRecord
100
AcDbLayerTableRecord
  2
0
 70
0
 62
7
  6
CONTINUOUS
370
-3
390
F
  0
LAYER
  5
1FA
100
AcDbSymbolTableRecord
100
AcDbLayerTableRecord
  2
DEFAULT_1
 70
0
 62
7
  6
CENTER
370
-3
390
F
  0
LAYER
  5
1FB
100
AcDbSymbolTableRecord
100
AcDbLayerTableRecord
  2
DEFAULT_2
 70
0
 62
8
  6
HIDDEN
370
-3
390
F
  0
LAYER
  5
1FC
100
AcDbSymbolTableRecord
100
AcDbLayerTableRecord
  2
DEFAULT_3
 70
0
 62
7
  6
PHANTOM
370
-3
390
F
  0
LAYER
  5
1FD
100
AcDbSymbolTableRecord
100
AcDbLayerTableRecord
  2
01___PRT_ALL_DTM_PLN
 70
0
 62
7
  6
CONTINUOUS
370
-3
390
F
  0
LAYER
  5
1FE
100
AcDbSymbolTableRecord
100
AcDbLayerTableRecord
  2
01___PRT_DEF_DTM_PLN
 70
0
 62
7
  6
CONTINUOUS
370
-3
390
F
  0
LAYER
  5
1FF
100
AcDbSymbolTableRecord
100
AcDbLayerTableRecord
  2
02___PRT_ALL_AXES
 70
0
 62
7
  6
CONTINUOUS
370
-3
390
F
  0
LAYER
  5
200
100
AcDbSymbolTableRecord
100
AcDbLayerTableRecord
  2
03___PRT_ALL_CURVES
 70
0
 62
7
  6
CONTINUOUS
370
-3
390
F
  0
LAYER
  5
201
100
AcDbSymbolTableRecord
100
AcDbLayerTableRecord
  2
04___PRT_ALL_DTM_PNT
 70
0
 62
7
  6
CONTINUOUS
370
-3
390
F
  0
LAYER
  5
202
100
AcDbSymbolTableRecord
100
AcDbLayerTableRecord
  2
05___PRT_ALL_DTM_CSYS
 70
0
 62
7
  6
CONTINUOUS
370
-3
390
F
  0
LAYER
  5
203
100
AcDbSymbolTableRecord
100
AcDbLayerTableRecord
  2
05___PRT_DEF_DTM_CSYS
 70
0
 62
7
  6
CONTINUOUS
370
-3
390
F
  0
LAYER
  5
204
100
AcDbSymbolTableRecord
100
AcDbLayerTableRecord
  2
06___PRT_ALL_SURFS
 70
0
 62
7
  6
CONTINUOUS
370
-3
390
F
  0
LAYER
  5
205
100
AcDbSymbolTableRecord
100
AcDbLayerTableRecord
  2
AXES
 70
0
 62
7
  6
CONTINUOUS
370
-3
390
F
  0
LAYER
  5
206
100
AcDbSymbolTableRecord
100
AcDbLayerTableRecord
  2
DTM_ALL
 70
0
 62
7
  6
CONTINUOUS
370
-3
390
F
  0
LAYER
  5
207
100
AcDbSymbolTableRecord
100
AcDbLayerTableRecord
  2
DTM_AXIS
 70
0
 62
7
  6
CONTINUOUS
370
-3
390
F
  0
LAYER
  5
208
100
AcDbSymbolTableRecord
100
AcDbLayerTableRecord
  2
DTM_CSYS
 70
0
 62
7
  6
CONTINUOUS
370
-3
390
F
  0
LAYER
  5
209
100
AcDbSymbolTableRecord
100
AcDbLayerTableRecord
  2
DTM_CURVE
 70
0
 62
7
  6
CONTINUOUS
370
-3
390
F
  0
LAYER
  5
20A
100
AcDbSymbolTableRecord
100
AcDbLayerTableRecord
  2
DTM_MASTER
 70
0
 62
7
  6
CONTINUOUS
370
-3
390
F
  0
LAYER
  5
20B
100
AcDbSymbolTableRecord
100
AcDbLayerTableRecord
  2
DTM_POINT
 70
0
 62
7
  6
CONTINUOUS
370
-3
390
F
  0
LAYER
  5
20C
100
AcDbSymbolTableRecord
100
AcDbLayerTableRecord
  2
DTM_QUILT
 70
0
 62
7
  6
CONTINUOUS
370
-3
390
F
  0
LAYER
  5
20D
100
AcDbSymbolTableRecord
100
AcDbLayerTableRecord
  2
GTOL
 70
0
 62
7
  6
CONTINUOUS
370
-3
390
F
  0
LAYER
  5
20E
100
AcDbSymbolTableRecord
100
AcDbLayerTableRecord
  2
NOTES
 70
0
 62
7
  6
CONTINUOUS
370
-3
390
F
  0
LAYER
  5
20F
100
AcDbSymbolTableRecord
100
AcDbLayerTableRecord
  2
REF_PLANS
 70
0
 62
7
  6
CONTINUOUS
370
-3
390
F
  0
LAYER
  5
210
100
AcDbSymbolTableRecord
100
AcDbLayerTableRecord
  2
XSEC_DATUMS
 70
0
 62
7
  6
CONTINUOUS
370
-3
390
F
  0
ENDTAB
  0
TABLE
  2
STYLE
  5
3
100
AcDbSymbolTable
 70
1
  0
STYLE
  5
11
100
AcDbSymbolTableRecord
100
AcDbTextStyleTableRecord
  2
STANDARD
 70
0
 40
0.0
 41
1.0
 50
0.0
 71
0
 42
0.2
  3
cgtime.ttf
  4

1001
ACAD
1000
CG Times
1071
34
  0
STYLE
  5
211
100
AcDbSymbolTableRecord
100
AcDbTextStyleTableRecord
  2
TEXTSTYLE_1
 70
0
 40
0.0
 41
0.8
 50
0.0
 71
0
 42
0.2
  3
gdt
  4

  0
STYLE
  5
212
100
AcDbSymbolTableRecord
100
AcDbTextStyleTableRecord
  2
TEXTSTYLE_2
 70
0
 40
0.0
 41
1.0
 50
0.0
 71
0
 42
0.2
  3
trium.ttf
  4

1001
ACAD
1000
CG Triumvirate
1071
34
  0
ENDTAB
  0
TABLE
  2
VIEW
  5
6
100
AcDbSymbolTable
 70
0
  0
ENDTAB
  0
TABLE
  2
UCS
  5
7
100
AcDbSymbolTable
 70
0
  0
ENDTAB
  0
TABLE
  2
APPID
  5
9
100
AcDbSymbolTable
 70
1
  0
APPID
  5
213
100
AcDbSymbolTableRecord
100
AcDbRegAppTableRecord
  2
ACAD
 70
0
  0
ENDTAB
  0
TABLE
  2
BLOCK_RECORD
  5
1
100
AcDbSymbolTable
 70
0
  0
BLOCK_RECORD
  5
214
100
AcDbSymbolTableRecord
100
AcDbBlockTableRecord
  2
*Model_Space
  0
BLOCK_RECORD
  5
215
100
AcDbSymbolTableRecord
100
AcDbBlockTableRecord
  2
*Paper_Space
  0
BLOCK_RECORD
  5
216
100
AcDbSymbolTableRecord
100
AcDbBlockTableRecord
  2
_FILLED
  0
BLOCK_RECORD
  5
217
100
AcDbSymbolTableRecord
100
AcDbBlockTableRecord
  2
*D0
  0
BLOCK_RECORD
  5
218
100
AcDbSymbolTableRecord
100
AcDbBlockTableRecord
  2
*D1
  0
BLOCK_RECORD
  5
219
100
AcDbSymbolTableRecord
100
AcDbBlockTableRecord
  2
*D2
  0
BLOCK_RECORD
  5
21A
100
AcDbSymbolTableRecord
100
AcDbBlockTableRecord
  2
*D3
  0
BLOCK_RECORD
  5
21B
100
AcDbSymbolTableRecord
100
AcDbBlockTableRecord
  2
*D4
  0
BLOCK_RECORD
  5
21C
100
AcDbSymbolTableRecord
100
AcDbBlockTableRecord
  2
*D5
  0
BLOCK_RECORD
  5
21D
100
AcDbSymbolTableRecord
100
AcDbBlockTableRecord
  2
*D6
  0
BLOCK_RECORD
  5
21E
100
AcDbSymbolTableRecord
100
AcDbBlockTableRecord
  2
*T1
  0
ENDTAB
  0
TABLE
  2
DIMSTYLE
  5
A
100
AcDbSymbolTable
 70
1
100
AcDbDimStyleTable
 71
0
  0
DIMSTYLE
105
21F
100
AcDbSymbolTableRecord
100
AcDbDimStyleTableRecord
  2
STANDARD
 70
0
  3

  4

 40
1.0
 41
3.5
 42
1.0
 43
0.38
 44
1.5
 45
0.0
 46
0.0
 47
0.001
 48
0.001
140
2.5
141
0.09
142
0.0
143
25.4
144
1.0
145
0.0
146
1.0
147
0.625
 71
1
 72
0
 73
1
 74
1
 75
0
 76
0
 77
0
 78
8
 79
2
170
0
171
2
172
0
173
0
174
0
175
0
176
0
177
0
178
0
270
2
179
3
271
3
272
3
273
2
274
2
275
0
280
0
281
0
282
0
283
1
284
8
285
0
286
0
287
3
288
0
340
11
278
44
341
216
342
216
343
216
344
216
  0
DIMSTYLE
105
220
100
AcDbSymbolTableRecord
100
AcDbDimStyleTableRecord
  2
DIMSTYLE_1
 70
0
  3

  4

 40
1.0
 41
3.5
 42
1.0
 43
0.38
 44
1.5
 45
0.0
 46
0.0
 47
0.0
 48
0.0
140
2.5
141
0.09
142
0.0
143
25.4
144
1.0
145
0.0
146
1.0
147
1.25
 71
0
 72
0
 73
1
 74
1
 75
0
 76
0
 77
0
 78
8
 79
2
170
0
171
2
172
0
173
0
174
0
175
0
176
0
177
0
178
0
270
2
179
3
271
3
272
3
273
2
274
2
275
0
280
0
281
0
282
0
283
1
284
8
285
0
286
0
287
3
288
0
340
11
278
44
341
216
342
216
343
216
344
216
  0
DIMSTYLE
105
221
100
AcDbSymbolTableRecord
100
AcDbDimStyleTableRecord
  2
DIMSTYLE_2
 70
0
  3

  4

 40
1.0
 41
3.5
 42
1.0
 43
0.38
 44
1.5
 45
0.0
 46
0.0
 47
0.0
 48
0.0
140
2.5
141
0.09
142
0.0
143
25.4
144
1.0
145
0.0
146
1.0
147
1.25
 71
0
 72
0
 73
1
 74
1
 75
0
 76
0
 77
0
 78
8
 79
2
170
0
171
2
172
0
173
0
174
0
175
0
176
0
177
0
178
0
270
2
179
3
271
0
272
0
273
2
274
2
275
0
280
0
281
0
282
0
283
1
284
8
285
0
286
0
287
3
288
0
340
11
278
44
341
216
342
216
343
216
344
216
  0
DIMSTYLE
105
222
100
AcDbSymbolTableRecord
100
AcDbDimStyleTableRecord
  2
DIMSTYLE_3
 70
0
  3

  4

 40
1.0
 41
3.5
 42
1.0
 43
0.38
 44
1.5
 45
0.0
 46
0.0
 47
0.0
 48
0.0
140
2.5
141
0.09
142
0.0
143
25.4
144
5.0
145
0.0
146
1.0
147
1.25
 71
0
 72
0
 73
1
 74
1
 75
0
 76
0
 77
0
 78
8
 79
2
170
0
171
2
172
0
173
0
174
0
175
0
176
0
177
0
178
0
270
2
179
3
271
0
272
0
273
2
274
2
275
0
280
0
281
0
282
0
283
1
284
8
285
0
286
0
287
3
288
0
340
11
278
44
341
216
342
216
343
216
344
216
  0
DIMSTYLE
105
223
100
AcDbSymbolTableRecord
100
AcDbDimStyleTableRecord
  2
DIMSTYLE_4
 70
0
  3

  4

 40
1.0
 41
3.5
 42
1.0
 43
0.38
 44
1.5
 45
0.0
 46
0.0
 47
0.0
 48
0.0
140
2.5
141
0.09
142
0.0
143
25.4
144
5.0
145
0.0
146
1.0
147
1.25
 71
0
 72
0
 73
1
 74
1
 75
0
 76
0
 77
0
 78
8
 79
2
170
0
171
2
172
0
173
0
174
0
175
0
176
0
177
0
178
0
270
2
179
3
271
3
272
3
273
2
274
2
275
0
280
0
281
0
282
0
283
1
284
8
285
0
286
0
287
3
288
0
340
11
278
44
341
216
342
216
343
216
344
216
  0
ENDTAB
  0
ENDSEC
  0
SECTION
  2
BLOCKS
  0
BLOCK
  5
20
100
AcDbEntity
  8
0
100
AcDbBlockBegin
  2
*Model_Space
 70
0
 10
0.0
 20
0.0
 30
0.0
  3
*Model_Space
  1

  0
ENDBLK
  5
21
100
AcDbEntity
  8
0
100
AcDbBlockEnd
  0
BLOCK
  5
1C
100
AcDbEntity
  8
0
100
AcDbBlockBegin
  2
*Paper_Space
 70
0
 10
0.0
 20
0.0
 30
0.0
  3
*Paper_Space
  1

  0
ENDBLK
  5
1D
100
AcDbEntity
  8
0
100
AcDbBlockEnd
  0
BLOCK
  5
224
100
AcDbEntity
  8
0
100
AcDbBlockBegin
  2
_FILLED
 70
64
 10
0.0
 20
0.0
  3
_FILLED
  1

  0
SOLID
  5
225
100
AcDbEntity
  8
0
  6
BYBLOCK
 62
0
100
AcDbTrace
 10
0.0
 20
0.0
 11
-1.0
 21
0.2142857143
 12
-1.0
 22
-0.2142857143
 13
-1.0
 23
-0.2142857143
  0
ENDBLK
  5
226
100
AcDbEntity
  8
0
  6
BYBLOCK
 62
0
100
AcDbBlockEnd
  0
BLOCK
  5
227
100
AcDbEntity
  8
0
100
AcDbBlockBegin
 62
2
  6
CONTINUOUS
  2
*D0
 70
65
 10
0.0
 20
0.0
  3
*D0
  1

  0
TEXT
  5
228
100
AcDbEntity
  8
0
100
AcDbText
 62
2
  6
CONTINUOUS
 10
66.7329187166
 20
168.8087183896
  7
STANDARD
 40
2.5
  1
50
 72
5
 11
70.3710510123
 21
168.8087183896
100
AcDbText
  0
TEXT
  5
229
100
AcDbEntity
  8
0
100
AcDbText
 62
2
  6
CONTINUOUS
 10
70.3710510123
 20
168.8087183896
  7
STANDARD
 40
2.5
  1
mm
 72
5
 11
76.042257238
 21
168.8087183896
100
AcDbText
  0
TEXT
  5
22A
100
AcDbEntity
  8
0
100
AcDbText
 62
2
  6
CONTINUOUS
 10
69.6366152147
 20
165.0587183896
  7
STANDARD
 40
2.5
  1
2"
 72
5
 11
73.13856074
 21
165.0587183896
100
AcDbText
  0
LINE
  5
22B
100
AcDbEntity
  8
0
100
AcDbLine
 62
2
  6
CONTINUOUS
 10
46.3875879773
 20
113.1982616457
 11
46.3875879773
 21
171.5587183896
  0
LINE
  5
22C
100
AcDbEntity
  8
0
100
AcDbLine
 62
2
  6
CONTINUOUS
 10
96.3875879773
 20
149.0015389079
 11
96.3875879773
 21
171.5587183896
  0
LINE
  5
22D
100
AcDbEntity
  8
0
100
AcDbLine
 62
2
  6
CONTINUOUS
 10
46.3875879773
 20
170.0587183896
 11
65.4829187166
 21
170.0587183896
  0
LINE
  5
22E
100
AcDbEntity
  8
0
100
AcDbLine
 62
2
  6
CONTINUOUS
 10
96.3875879773
 20
170.0587183896
 11
77.292257238
 21
170.0587183896
  0
INSERT
  5
22F
100
AcDbEntity
  8
0
100
AcDbBlockReference
 62
2
  6
CONTINUOUS
  2
_FILLED
 10
46.3875879773
 20
170.0587183896
 41
3.5
 42
3.5
 43
3.5
 50
180.0
  0
INSERT
  5
230
100
AcDbEntity
  8
0
100
AcDbBlockReference
 62
2
  6
CONTINUOUS
  2
_FILLED
 10
96.3875879773
 20
170.0587183896
 41
3.5
 42
3.5
 43
3.5
  0
ENDBLK
  5
231
100
AcDbEntity
  8
0
  6
BYBLOCK
 62
0
100
AcDbBlockEnd
  0
BLOCK
  5
232
100
AcDbEntity
  8
0
100
AcDbBlockBegin
 62
2
  6
CONTINUOUS
  2
*D1
 70
65
 10
0.0
 20
0.0
  3
*D1
  1

  0
TEXT
  5
233
100
AcDbEntity
  8
0
100
AcDbText
 62
2
  6
CONTINUOUS
 10
23.905074114
 20
121.7515389079
  7
STANDARD
 40
2.5
  1
50
 72
5
 11
27.5432064097
 21
121.7515389079
100
AcDbText
  0
TEXT
  5
234
100
AcDbEntity
  8
0
100
AcDbText
 62
2
  6
CONTINUOUS
 10
27.5432064097
 20
121.7515389079
  7
STANDARD
 40
2.5
  1
mm
 72
5
 11
33.2144126354
 21
121.7515389079
100
AcDbText
  0
TEXT
  5
235
100
AcDbEntity
  8
0
100
AcDbText
 62
2
  6
CONTINUOUS
 10
26.808770612
 20
118.0015389079
  7
STANDARD
 40
2.5
  1
2"
 72
5
 11
30.3107161373
 21
118.0015389079
100
AcDbText
  0
LINE
  5
236
100
AcDbEntity
  8
0
100
AcDbLine
 62
2
  6
CONTINUOUS
 10
82.3875879773
 20
148.0015389079
 11
27.0597433747
 21
148.0015389079
  0
LINE
  5
237
100
AcDbEntity
  8
0
100
AcDbLine
 62
2
  6
CONTINUOUS
 10
45.3875879773
 20
98.0015389079
 11
27.0597433747
 21
98.0015389079
  0
LINE
  5
238
100
AcDbEntity
  8
0
100
AcDbLine
 62
2
  6
CONTINUOUS
 10
28.5597433747
 20
148.0015389079
 11
28.5597433747
 21
125.5015389079
  0
LINE
  5
239
100
AcDbEntity
  8
0
100
AcDbLine
 62
2
  6
CONTINUOUS
 10
28.5597433747
 20
98.0015389079
 11
28.5597433747
 21
116.7515389079
  0
INSERT
  5
23A
100
AcDbEntity
  8
0
100
AcDbBlockReference
 62
2
  6
CONTINUOUS
  2
_FILLED
 10
28.5597433747
 20
148.0015389079
 41
3.5
 42
3.5
 43
3.5
 50
90.0
  0
INSERT
  5
23B
100
AcDbEntity
  8
0
100
AcDbBlockReference
 62
2
  6
CONTINUOUS
  2
_FILLED
 10
28.5597433747
 20
98.0015389079
 41
3.5
 42
3.5
 43
3.5
 50
270.0
  0
ENDBLK
  5
23C
100
AcDbEntity
  8
0
  6
BYBLOCK
 62
0
100
AcDbBlockEnd
  0
BLOCK
  5
23D
100
AcDbEntity
  8
0
100
AcDbBlockBegin
 62
2
  6
CONTINUOUS
  2
*D2
 70
65
 10
0.0
 20
0.0
  3
*D2
  1

  0
TEXT
  5
23E
100
AcDbEntity
  8
0
100
AcDbText
 62
2
  6
CONTINUOUS
 10
86.9300725381
 20
101.5543850864
  7
STANDARD
 40
2.5
  1
70
 72
5
 11
90.5682048338
 21
101.5543850864
100
AcDbText
  0
TEXT
  5
23F
100
AcDbEntity
  8
0
100
AcDbText
 62
2
  6
CONTINUOUS
 10
90.5682048338
 20
101.5543850864
  7
STANDARD
 40
2.5
  1
mm
 72
5
 11
96.2394110595
 21
101.5543850864
100
AcDbText
  0
TEXT
  5
240
100
AcDbEntity
  8
0
100
AcDbText
 62
2
  6
CONTINUOUS
 10
86.7987495809
 20
97.8043850864
  7
STANDARD
 40
2.5
  1
2-3/4"
 72
5
 11
96.3707340167
 21
97.8043850864
100
AcDbText
  0
LINE
  5
241
100
AcDbEntity
  8
0
100
AcDbLine
 62
2
  6
CONTINUOUS
 10
97.0946947585
 20
147.2944321267
 11
117.6454019706
 21
126.7437249146
  0
LINE
  5
242
100
AcDbEntity
  8
0
100
AcDbLine
 62
2
  6
CONTINUOUS
 10
47.0946947585
 20
97.2944321267
 11
67.6454019706
 21
76.7437249146
  0
LINE
  5
243
100
AcDbEntity
  8
0
100
AcDbLine
 62
2
  6
CONTINUOUS
 10
116.5847417988
 20
127.8043850864
 11
94.0847417988
 21
105.3043850864
  0
LINE
  5
244
100
AcDbEntity
  8
0
100
AcDbLine
 62
2
  6
CONTINUOUS
 10
66.5847417988
 20
77.8043850864
 11
85.5487495809
 21
96.7683928685
  0
INSERT
  5
245
100
AcDbEntity
  8
0
100
AcDbBlockReference
 62
2
  6
CONTINUOUS
  2
_FILLED
 10
116.5847417988
 20
127.8043850864
 41
3.5
 42
3.5
 43
3.5
 50
45.0
  0
INSERT
  5
246
100
AcDbEntity
  8
0
100
AcDbBlockReference
 62
2
  6
CONTINUOUS
  2
_FILLED
 10
66.5847417988
 20
77.8043850864
 41
3.5
 42
3.5
 43
3.5
 50
225.0
  0
ENDBLK
  5
247
100
AcDbEntity
  8
0
  6
BYBLOCK
 62
0
100
AcDbBlockEnd
  0
BLOCK
  5
248
100
AcDbEntity
  8
0
100
AcDbBlockBegin
 62
2
  6
CONTINUOUS
  2
*D3
 70
65
 10
0.0
 20
0.0
  3
*D3
  1

  0
TEXT
  5
249
100
AcDbEntity
  8
0
100
AcDbText
 62
2
  6
CONTINUOUS
 10
86.5176450186
 20
45.0627043701
  7
STANDARD
 40
2.5
  1
400
 72
5
 11
91.9748434622
 21
45.0627043701
100
AcDbText
  0
TEXT
  5
24A
100
AcDbEntity
  8
0
100
AcDbText
 62
2
  6
CONTINUOUS
 10
91.9748434622
 20
45.0627043701
  7
STANDARD
 40
2.5
  1
mm
 72
5
 11
97.6460496879
 21
45.0627043701
100
AcDbText
  0
TEXT
  5
24B
100
AcDbEntity
  8
0
100
AcDbText
 62
2
  6
CONTINUOUS
 10
86.3863220614
 20
41.3127043701
  7
STANDARD
 40
2.5
  1
15-3/4"
 72
5
 11
97.7773726451
 21
41.3127043701
100
AcDbText
  0
LINE
  5
24C
100
AcDbEntity
  8
0
100
AcDbLine
 62
2
  6
CONTINUOUS
 10
52.0612473532
 20
32.5308803665
 11
52.0612473532
 21
47.8127043701
  0
LINE
  5
24D
100
AcDbEntity
  8
0
100
AcDbLine
 62
2
  6
CONTINUOUS
 10
132.1024473532
 20
32.5308803665
 11
132.1024473532
 21
47.8127043701
  0
LINE
  5
24E
100
AcDbEntity
  8
0
100
AcDbLine
 62
2
  6
CONTINUOUS
 10
52.0612473532
 20
46.3127043701
 11
85.2676450186
 21
46.3127043701
  0
LINE
  5
24F
100
AcDbEntity
  8
0
100
AcDbLine
 62
2
  6
CONTINUOUS
 10
132.1024473532
 20
46.3127043701
 11
98.8960496879
 21
46.3127043701
  0
INSERT
  5
250
100
AcDbEntity
  8
0
100
AcDbBlockReference
 62
2
  6
CONTINUOUS
  2
_FILLED
 10
52.0612473532
 20
46.3127043701
 41
3.5
 42
3.5
 43
3.5
 50
180.0
  0
INSERT
  5
251
100
AcDbEntity
  8
0
100
AcDbBlockReference
 62
2
  6
CONTINUOUS
  2
_FILLED
 10
132.1024473532
 20
46.3127043701
 41
3.5
 42
3.5
 43
3.5
  0
ENDBLK
  5
252
100
AcDbEntity
  8
0
  6
BYBLOCK
 62
0
100
AcDbBlockEnd
  0
BLOCK
  5
253
100
AcDbEntity
  8
0
100
AcDbBlockBegin
 62
2
  6
CONTINUOUS
  2
*D4
 70
65
 10
0.0
 20
0.0
  3
*D4
  1

  0
TEXT
  5
254
100
AcDbEntity
  8
0
100
AcDbText
 62
2
  6
CONTINUOUS
 10
26.4970450186
 20
45.0627043701
  7
STANDARD
 40
2.5
  1
200
 72
5
 11
31.9542434622
 21
45.0627043701
100
AcDbText
  0
TEXT
  5
255
100
AcDbEntity
  8
0
100
AcDbText
 62
2
  6
CONTINUOUS
 10
31.9542434622
 20
45.0627043701
  7
STANDARD
 40
2.5
  1
mm
 72
5
 11
37.6254496879
 21
45.0627043701
100
AcDbText
  0
TEXT
  5
256
100
AcDbEntity
  8
0
100
AcDbText
 62
2
  6
CONTINUOUS
 10
28.1166948241
 20
41.3127043701
  7
STANDARD
 40
2.5
  1
7-7/8
 72
5
 11
36.0057998824
 21
41.3127043701
100
AcDbText
  0
LINE
  5
257
100
AcDbEntity
  8
0
100
AcDbLine
 62
2
  6
CONTINUOUS
 10
12.0612473532
 20
32.5308803665
 11
12.0612473532
 21
47.8127043701
  0
LINE
  5
258
100
AcDbEntity
  8
0
100
AcDbLine
 62
2
  6
CONTINUOUS
 10
52.0612473532
 20
32.5308803665
 11
52.0612473532
 21
47.8127043701
  0
LINE
  5
259
100
AcDbEntity
  8
0
100
AcDbLine
 62
2
  6
CONTINUOUS
 10
12.0612473532
 20
46.3127043701
 11
25.2470450186
 21
46.3127043701
  0
LINE
  5
25A
100
AcDbEntity
  8
0
100
AcDbLine
 62
2
  6
CONTINUOUS
 10
52.0612473532
 20
46.3127043701
 11
38.8754496879
 21
46.3127043701
  0
INSERT
  5
25B
100
AcDbEntity
  8
0
100
AcDbBlockReference
 62
2
  6
CONTINUOUS
  2
_FILLED
 10
12.0612473532
 20
46.3127043701
 41
3.5
 42
3.5
 43
3.5
 50
180.0
  0
INSERT
  5
25C
100
AcDbEntity
  8
0
100
AcDbBlockReference
 62
2
  6
CONTINUOUS
  2
_FILLED
 10
52.0612473532
 20
46.3127043701
 41
3.5
 42
3.5
 43
3.5
  0
ENDBLK
  5
25D
100
AcDbEntity
  8
0
  6
BYBLOCK
 62
0
100
AcDbBlockEnd
  0
BLOCK
  5
25E
100
AcDbEntity
  8
0
100
AcDbBlockBegin
 62
2
  6
CONTINUOUS
  2
*D5
 70
65
 10
0.0
 20
0.0
  3
*D5
  1

  0
TEXT
  5
25F
100
AcDbEntity
  8
0
100
AcDbText
 62
2
  6
CONTINUOUS
 10
34.2271822126
 20
105.2545027564
  7
STANDARD
 40
2.5
  1
12
 72
5
 11
37.8653145083
 21
105.2545027564
100
AcDbText
  0
TEXT
  5
260
100
AcDbEntity
  8
0
100
AcDbText
 62
2
  6
CONTINUOUS
 10
37.8653145083
 20
105.2545027564
  7
STANDARD
 40
2.5
  1
mm
 72
5
 11
43.536520734
 21
105.2545027564
100
AcDbText
  0
TEXT
  5
261
100
AcDbEntity
  8
0
100
AcDbText
 62
2
  6
CONTINUOUS
 10
35.613368983
 20
101.5045027564
  7
STANDARD
 40
2.5
  1
1/2"
 72
5
 11
42.1503339636
 21
101.5045027564
100
AcDbText
  0
LINE
  5
262
100
AcDbEntity
  8
0
100
AcDbLine
 62
2
  6
CONTINUOUS
 10
45.3875879773
 20
110.0539200621
 11
37.3818514733
 21
110.0539200621
  0
LINE
  5
263
100
AcDbEntity
  8
0
100
AcDbLine
 62
2
  6
CONTINUOUS
 10
45.3875879773
 20
98.0015389079
 11
37.3818514733
 21
98.0015389079
  0
LINE
  5
264
100
AcDbEntity
  8
0
100
AcDbLine
 62
2
  6
CONTINUOUS
 10
38.8818514733
 20
110.0539200621
 11
38.8818514733
 21
115.0539200621
  0
LINE
  5
265
100
AcDbEntity
  8
0
100
AcDbLine
 62
2
  6
CONTINUOUS
 10
38.8818514733
 20
98.0015389079
 11
38.8818514733
 21
93.0015389079
  0
INSERT
  5
266
100
AcDbEntity
  8
0
100
AcDbBlockReference
 62
2
  6
CONTINUOUS
  2
_FILLED
 10
38.8818514733
 20
110.0539200621
 41
3.5
 42
3.5
 43
3.5
 50
270.0
  0
INSERT
  5
267
100
AcDbEntity
  8
0
100
AcDbBlockReference
 62
2
  6
CONTINUOUS
  2
_FILLED
 10
38.8818514733
 20
98.0015389079
 41
3.5
 42
3.5
 43
3.5
 50
90.0
  0
ENDBLK
  5
268
100
AcDbEntity
  8
0
  6
BYBLOCK
 62
0
100
AcDbBlockEnd
  0
BLOCK
  5
269
100
AcDbEntity
  8
0
100
AcDbBlockBegin
 62
2
  6
CONTINUOUS
  2
*D6
 70
65
 10
0.0
 20
0.0
  3
*D6
  1

  0
TEXT
  5
26A
100
AcDbEntity
  8
0
100
AcDbText
 62
2
  6
CONTINUOUS
 10
85.2329187166
 20
153.2131827958
  7
STANDARD
 40
2.5
  1
13
 72
5
 11
88.8710510123
 21
153.2131827958
100
AcDbText
  0
TEXT
  5
26B
100
AcDbEntity
  8
0
100
AcDbText
 62
2
  6
CONTINUOUS
 10
88.8710510123
 20
153.2131827958
  7
STANDARD
 40
2.5
  1
mm
 72
5
 11
94.542257238
 21
153.2131827958
100
AcDbText
  0
TEXT
  5
26C
100
AcDbEntity
  8
0
100
AcDbText
 62
2
  6
CONTINUOUS
 10
86.6191054871
 20
149.4631827958
  7
STANDARD
 40
2.5
  1
1/2"
 72
5
 11
93.1560704676
 21
149.4631827958
100
AcDbText
  0
LINE
  5
26D
100
AcDbEntity
  8
0
100
AcDbLine
 62
2
  6
CONTINUOUS
 10
83.3875879773
 20
149.0015389079
 11
83.3875879773
 21
155.9631827958
  0
LINE
  5
26E
100
AcDbEntity
  8
0
100
AcDbLine
 62
2
  6
CONTINUOUS
 10
96.3875879773
 20
149.0015389079
 11
96.3875879773
 21
155.9631827958
  0
LINE
  5
26F
100
AcDbEntity
  8
0
100
AcDbLine
 62
2
  6
CONTINUOUS
 10
83.3875879773
 20
154.4631827958
 11
78.3875879773
 21
154.4631827958
  0
LINE
  5
270
100
AcDbEntity
  8
0
100
AcDbLine
 62
2
  6
CONTINUOUS
 10
96.3875879773
 20
154.4631827958
 11
101.3875879773
 21
154.4631827958
  0
INSERT
  5
271
100
AcDbEntity
  8
0
100
AcDbBlockReference
 62
2
  6
CONTINUOUS
  2
_FILLED
 10
83.3875879773
 20
154.4631827958
 41
3.5
 42
3.5
 43
3.5
  0
INSERT
  5
272
100
AcDbEntity
  8
0
100
AcDbBlockReference
 62
2
  6
CONTINUOUS
  2
_FILLED
 10
96.3875879773
 20
154.4631827958
 41
3.5
 42
3.5
 43
3.5
 50
180.0
  0
ENDBLK
  5
273
100
AcDbEntity
  8
0
  6
BYBLOCK
 62
0
100
AcDbBlockEnd
  0
BLOCK
  5
274
100
AcDbEntity
  8
0
100
AcDbBlockBegin
  2
*T1
 70
1
 10
0.0
 20
0.0
  3
*T1
  1

  0
LINE
  5
275
100
AcDbEntity
  8
0
100
AcDbLine
 62
7
  6
CONTINUOUS
 10
0.0
 20
0.0
 11
148.0
 21
0.0
  0
LINE
  5
276
100
AcDbEntity
  8
0
100
AcDbLine
 62
7
  6
CONTINUOUS
 10
0.0
 20
0.0
 11
0.0
 21
-43.0
  0
LINE
  5
277
100
AcDbEntity
  8
0
100
AcDbLine
 62
7
  6
CONTINUOUS
 10
45.0
 20
-20.0
 11
148.0
 21
-20.0
  0
LINE
  5
278
100
AcDbEntity
  8
0
100
AcDbLine
 62
7
  6
CONTINUOUS
 10
45.0
 20
-28.0
 11
148.0
 21
-28.0
  0
LINE
  5
279
100
AcDbEntity
  8
0
100
AcDbLine
 62
7
  6
CONTINUOUS
 10
0.0
 20
-43.0
 11
148.0
 21
-43.0
  0
LINE
  5
27A
100
AcDbEntity
  8
0
100
AcDbLine
 62
7
  6
CONTINUOUS
 10
45.0
 20
0.0
 11
45.0
 21
-43.0
  0
LINE
  5
27B
100
AcDbEntity
  8
0
100
AcDbLine
 62
7
  6
CONTINUOUS
 10
143.0
 20
0.0
 11
143.0
 21
-20.0
  0
LINE
  5
27C
100
AcDbEntity
  8
0
100
AcDbLine
 62
7
  6
CONTINUOUS
 10
148.0
 20
0.0
 11
148.0
 21
-43.0
  0
TEXT
  5
27D
100
AcDbEntity
  8
0
100
AcDbText
 62
7
  6
CONTINUOUS
 10
8.9659749243
 20
-9.175
  7
STANDARD
 40
8.0
  1
O
 72
5
 11
17.370644185
 21
-9.175
100
AcDbText
  0
TEXT
  5
27E
100
AcDbEntity
  8
0
100
AcDbText
 62
7
  6
CONTINUOUS
 10
17.370644185
 20
-9.175
  7
STANDARD
 40
5.5
  1
RAC
 72
5
 11
33.9562472979
 21
-9.175
100
AcDbText
  0
TEXT
  5
27F
100
AcDbEntity
  8
0
100
AcDbText
 62
7
  6
CONTINUOUS
 10
33.9562472979
 20
-4.425
  7
TEXTSTYLE_2
 40
3.0
  1
®
 72
5
 11
36.0340250757
 21
-4.425
100
AcDbText
  0
TEXT
  5
280
100
AcDbEntity
  8
0
100
AcDbText
 62
7
  6
CONTINUOUS
 10
9.5323389537
 20
-13.825
  7
TEXTSTYLE_2
 40
3.0
  1
D  E  C  O  R
 72
5
 11
34.3878945093
 21
-13.825
100
AcDbText
  0
TEXT
  5
281
100
AcDbEntity
  8
0
100
AcDbText
 62
7
  6
CONTINUOUS
 10
34.3878945093
 20
-13.825
  7
STANDARD
 40
2.5
  1
 
 72
5
 11
35.4676610463
 21
-13.825
100
AcDbText
  0
TEXT
  5
282
100
AcDbEntity
  8
0
100
AcDbText
 62
7
  6
CONTINUOUS
 10
54.424270428
 20
-4.6
  7
STANDARD
 40
2.7
  1
Part name:
 72
5
 11
71.9375
 21
-4.6
100
AcDbText
  0
TEXT
  5
283
100
AcDbEntity
  8
0
100
AcDbText
 62
7
  6
CONTINUOUS
 10
50.6211575875
 20
-11.35
  7
STANDARD
 40
2.7
  1
Designed by:
 72
5
 11
71.9375
 21
-11.35
100
AcDbText
  0
TEXT
  5
284
100
AcDbEntity
  8
0
100
AcDbText
 62
7
  6
CONTINUOUS
 10
50.6211575875
 20
-18.1
  7
STANDARD
 40
2.7
  1
Designed on:
 72
5
 11
71.9375
 21
-18.1
100
AcDbText
  0
TEXT
  5
285
100
AcDbEntity
  8
0
100
AcDbText
 62
2
  6
CONTINUOUS
 10
74.0625
 20
-4.6
  7
STANDARD
 40
2.7
  1
C362
 72
5
 11
82.6457684825
 21
-4.6
100
AcDbText
  0
TEXT
  5
286
100
AcDbEntity
  8
0
100
AcDbText
 62
2
  6
CONTINUOUS
 10
74.0625
 20
-11.35
  7
STANDARD
 40
2.7
  1
Pierre Daems
 72
5
 11
95.9251459144
 21
-11.35
100
AcDbText
  0
TEXT
  5
287
100
AcDbEntity
  8
0
100
AcDbText
 62
2
  6
CONTINUOUS
 10
74.0625
 20
-18.1
  7
STANDARD
 40
2.7
  1
12-Jul-2011
 72
5
 11
93.0570525292
 21
-18.1
100
AcDbText
  0
TEXT
  5
288
100
AcDbEntity
  8
0
100
AcDbText
 62
2
  6
CONTINUOUS
 10
93.0570525292
 20
-18.1
  7
STANDARD
 40
2.7
  1
 
 72
5
 11
94.2232003891
 21
-18.1
100
AcDbText
  0
TEXT
  5
289
100
AcDbEntity
  8
0
100
AcDbText
 62
2
  6
CONTINUOUS
 10
146.5625
 20
-15.9620622568
  7
STANDARD
 40
1.5
  1
Version: 
 50
90.0
 72
5
 11
146.5625
 21
-7.5982490272
100
AcDbText
  0
TEXT
  5
28A
100
AcDbEntity
  8
0
100
AcDbText
 62
2
  6
CONTINUOUS
 10
146.5625
 20
-7.5982490272
  7
STANDARD
 40
1.5
  1
1.0
 50
90.0
 72
5
 11
146.5625
 21
-4.6857976654
100
AcDbText
  0
TEXT
  5
28B
100
AcDbEntity
  8
0
100
AcDbText
 62
2
  6
CONTINUOUS
 10
146.5625
 20
-4.6857976654
  7
STANDARD
 40
1.5
  1
 
 50
90.0
 72
5
 11
146.5625
 21
-4.0379377432
100
AcDbText
  0
TEXT
  5
28C
100
AcDbEntity
  8
0
100
AcDbText
 62
7
  6
CONTINUOUS
 10
10.5836575875
 20
-22.75
  7
STANDARD
 40
2.5
  1
Biekorfstraat 32
 72
5
 11
34.4163424125
 21
-22.75
100
AcDbText
  0
TEXT
  5
28D
100
AcDbEntity
  8
0
100
AcDbText
 62
7
  6
CONTINUOUS
 10
3.560311284
 20
-26.5
  7
STANDARD
 40
2.5
  1
8400 Oostende - Belgium
 72
5
 11
41.439688716
 21
-26.5
100
AcDbText
  0
TEXT
  5
28E
100
AcDbEntity
  8
0
100
AcDbText
 62
7
  6
CONTINUOUS
 10
3.9688715953
 20
-30.25
  7
STANDARD
 40
2.5
  1
Tel  +32 (0)59 80 32 52
 72
5
 11
41.0311284047
 21
-30.25
100
AcDbText
  0
TEXT
  5
28F
100
AcDbEntity
  8
0
100
AcDbText
 62
7
  6
CONTINUOUS
 10
6.9017509728
 20
-34.0
  7
STANDARD
 40
2.5
  1
www.oracdecor.com
 72
5
 11
38.0982490272
 21
-34.0
100
AcDbText
  0
TEXT
  5
290
100
AcDbEntity
  8
0
100
AcDbText
 62
7
  6
CONTINUOUS
 10
6.9017509728
 20
-37.75
  7
STANDARD
 40
2.5
  1
info@oracdecor.com
 72
5
 11
38.0982490272
 21
-37.75
100
AcDbText
  0
TEXT
  5
291
100
AcDbEntity
  8
0
100
AcDbText
 62
7
  6
CONTINUOUS
 10
46.0625
 20
-23.375
  7
STANDARD
 40
2.5
  1
Unless otherwise specified: all dimensions are in millimeters 
 72
5
 11
137.5605544747
 21
-23.375
100
AcDbText
  0
TEXT
  5
292
100
AcDbEntity
  8
0
100
AcDbText
 62
7
  6
CONTINUOUS
 10
46.0625
 20
-27.125
  7
STANDARD
 40
2.5
  1
and inches, scale 1:1, length 2 meters
 72
5
 11
102.3660019455
 21
-27.125
100
AcDbText
  0
TEXT
  5
293
100
AcDbEntity
  8
0
100
AcDbText
 62
7
  6
CONTINUOUS
 10
46.0625
 20
-31.81
  7
STANDARD
 40
1.8
  1
All information in this document is Orac's exclusive property.  It may in no case 
 72
5
 11
133.5901264591
 21
-31.81
100
AcDbText
  0
TEXT
  5
294
100
AcDbEntity
  8
0
100
AcDbText
 62
7
  6
CONTINUOUS
 10
46.0625
 20
-34.87
  7
STANDARD
 40
1.8
  1
be reproduced, even partly, be communicated to a third party or used for any 
 72
5
 11
129.8990758755
 21
-34.87
100
AcDbText
  0
TEXT
  5
295
100
AcDbEntity
  8
0
100
AcDbText
 62
7
  6
CONTINUOUS
 10
46.0625
 20
-37.93
  7
STANDARD
 40
1.8
  1
possible purpose without ORAC's express written permission. Further legal 
 72
5
 11
128.2321498054
 21
-37.93
100
AcDbText
  0
TEXT
  5
296
100
AcDbEntity
  8
0
100
AcDbText
 62
7
  6
CONTINUOUS
 10
46.0625
 20
-40.99
  7
STANDARD
 40
1.8
  1
information can be found at https://www.oracdecor.com/en/general-sales-conditions
 72
5
 11
136.4547178988
 21
-40.99
100
AcDbText
  0
ENDBLK
  5
297
100
AcDbEntity
  8
0
  6
BYBLOCK
 62
0
100
AcDbBlockEnd
  0
ENDSEC
  0
SECTION
  2
ENTITIES
  0
VIEWPORT
  5
298
100
AcDbEntity
 67
1
  8
0
100
AcDbViewport
 10
148.5
 20
105.0
 30
0.0
 40
297.0
 41
210.0
 68
1
 69
1
 12
148.5
 22
105.0
 13
0.0
 23
0.0
 14
10.0
 24
10.0
 15
10.0
 25
10.0
 16
0.0
 26
0.0
 36
1.0
 17
0.0
 27
0.0
 37
0.0
 42
50.0
 43
0.0
 44
0.0
 45
210.0
 50
0.0
 51
0.0
 72
100
 90
32864
  1

281
0
 71
1
 74
0
110
0.0
120
0.0
130
0.0
111
1.0
121
0.0
131
0.0
112
0.0
122
1.0
132
0.0
 79
0
146
0.0
  0
DIMENSION
  5
299
100
AcDbEntity
 67
1
  8
0
100
AcDbDimension
 62
2
  6
CONTINUOUS
  2
*D0
 10
96.3875879773
 20
170.0587183896
 11
71.3875879773
 21
168.1837183896
 70
160
 71
2
 72
2
 41
0.9
 42
50.0
  1
<>mm\P2"
  3
DIMSTYLE_1
100
AcDbAlignedDimension
 13
46.3875879773
 23
112.1982616457
 14
96.3875879773
 24
148.0015389079
100
AcDbRotatedDimension
  0
DIMENSION
  5
29A
100
AcDbEntity
 67
1
  8
0
100
AcDbDimension
 62
2
  6
CONTINUOUS
  2
*D1
 10
28.5597433747
 20
98.0015389079
 11
28.5597433747
 21
121.1265389079
 70
160
 71
2
 72
2
 41
0.9
 42
50.0
  1
<>mm\P2"
  3
DIMSTYLE_1
100
AcDbAlignedDimension
 13
83.3875879773
 23
148.0015389079
 14
46.3875879773
 24
98.0015389079
 50
270.0
100
AcDbRotatedDimension
  0
DIMENSION
  5
29B
100
AcDbEntity
 67
1
  8
0
100
AcDbDimension
 62
2
  6
CONTINUOUS
  2
*D2
 10
66.5847417988
 20
77.8043850864
 11
91.5847417988
 21
100.9293850864
 70
160
 71
2
 72
2
 41
0.9
 42
70.7106781187
  1
<>mm\P2-3/4"
  3
DIMSTYLE_2
100
AcDbAlignedDimension
 13
96.3875879773
 23
148.0015389079
 14
46.3875879773
 24
98.0015389079
 50
225.0
100
AcDbRotatedDimension
  0
DIMENSION
  5
29C
100
AcDbEntity
 67
1
  8
0
100
AcDbDimension
 62
2
  6
CONTINUOUS
  2
*D3
 10
132.1024473532
 20
46.3127043701
 11
92.0818473532
 21
44.4377043701
 70
160
 71
2
 72
2
 41
0.9
 42
400.206
  1
<>mm\P15-3/4"
  3
DIMSTYLE_3
100
AcDbAlignedDimension
 13
52.0612473532
 23
31.5308803665
 14
132.1024473532
 24
31.5308803665
100
AcDbRotatedDimension
  0
DIMENSION
  5
29D
100
AcDbEntity
 67
1
  8
0
100
AcDbDimension
 62
2
  6
CONTINUOUS
  2
*D4
 10
52.0612473532
 20
46.3127043701
 11
32.0612473532
 21
44.4377043701
 70
160
 71
2
 72
2
 41
0.9
 42
200.0
  1
<>mm\P7-7/8
  3
DIMSTYLE_4
100
AcDbAlignedDimension
 13
12.0612473532
 23
31.5308803665
 14
52.0612473532
 24
31.5308803665
100
AcDbRotatedDimension
  0
DIMENSION
  5
29E
100
AcDbEntity
 67
1
  8
0
100
AcDbDimension
 62
2
  6
CONTINUOUS
  2
*D5
 10
38.8818514733
 20
98.0015389079
 11
38.8818514733
 21
104.6295027564
 70
160
 71
2
 72
2
 41
0.9
 42
12.0523811542
  1
<>mm\P1/2"
  3
DIMSTYLE_2
100
AcDbAlignedDimension
 13
46.3875879773
 23
110.0539200621
 14
46.3875879773
 24
98.0015389079
 50
270.0
100
AcDbRotatedDimension
  0
DIMENSION
  5
29F
100
AcDbEntity
 67
1
  8
0
100
AcDbDimension
 62
2
  6
CONTINUOUS
  2
*D6
 10
96.3875879773
 20
154.4631827958
 11
89.8875879773
 21
152.5881827958
 70
160
 71
2
 72
2
 41
0.9
 42
13.0
  1
<>mm\P1/2"
  3
DIMSTYLE_1
100
AcDbAlignedDimension
 13
83.3875879773
 23
148.0015389079
 14
96.3875879773
 24
148.0015389079
100
AcDbRotatedDimension
  0
ACAD_TABLE
  5
2A0
100
AcDbEntity
 67
1
  8
0
 62
2
  6
CONTINUOUS
100
AcDbBlockReference
  2
*T1
 10
144.0
 20
48.0
 30
0.0
100
AcDbTable
342
       336
343
21E
 11
1.0
 21
0.0
 31
0.0
 90
22
 91
4
 92
4
 93
0
 94
0
 95
0
 96
0
141
15.0
141
5.0
141
8.0
141
15.0
142
45.0
142
28.0
142
70.0
142
5.0
171
1
172
0
173
0
174
0
175
1
176
1
 91
41
178
0
145
0.0
301
CELL_VALUE
 90
4
  1
\A1;O\H5.5;RAC\fCG Triumvirate;\H3.0;\S®^ ;\PD  E  C  O  R\fCG Times;\H2.5; 
304
ACVALUE_END
170
5
140
8.0
 64
7
171
1
172
0
173
0
174
0
175
1
176
2
 91
41
178
0
145
0.0
301
CELL_VALUE
 90
4
  1
Part name:\PDesigned by:\PDesigned on:
304
ACVALUE_END
170
6
140
2.7
 64
7
171
1
172
0
173
0
174
0
175
1
176
2
 91
33
178
0
145
0.0
301
CELL_VALUE
 90
4
  1
C362\PPierre Daems\P12-Jul-2011 
304
ACVALUE_END
170
4
140
2.7
171
1
172
0
173
0
174
0
175
1
176
2
 91
33
178
0
145
1.5707963268
301
CELL_VALUE
 90
4
  1
Version: 1.0 
304
ACVALUE_END
170
6
140
1.5
171
1
172
0
173
0
174
0
175
1
176
3
 91
41
178
0
145
0.0
301
CELL_VALUE
 90
4
  1
Biekorfstraat 32\P8400 Oostende - Belgium\PTel  +32 (0)59 80 32 52\Pwww.oracdecor.com\Pinfo@oracdecor.com
304
ACVALUE_END
170
5
140
2.5
 64
7
171
1
172
0
173
1
174
0
175
1
176
1
 91
1
178
0
145
0.0
170
1
171
1
172
0
173
1
174
0
175
1
176
1
 91
1
178
0
145
0.0
170
1
171
1
172
0
173
1
174
0
175
1
176
1
 91
1
178
0
145
0.0
170
1
171
1
172
0
173
1
174
0
175
1
176
1
 91
1
178
0
145
0.0
170
1
171
1
172
0
173
0
174
0
175
3
176
1
 91
41
178
0
145
0.0
301
CELL_VALUE
 90
4
  1
Unless otherwise specified: all dimensions are in millimeters \Pand inches, scale 1:1, length 2 meters
304
ACVALUE_END
170
4
140
2.5
 64
7
171
1
172
0
173
1
174
0
175
1
176
1
 91
1
178
0
145
0.0
170
1
171
1
172
0
173
1
174
0
175
1
176
1
 91
1
178
0
145
0.0
170
1
171
1
172
0
173
1
174
0
175
1
176
1
 91
1
178
0
145
0.0
170
1
171
1
172
0
173
0
174
0
175
3
176
1
 91
41
178
0
145
0.0
301
CELL_VALUE
 90
4
  2
All information in this document is Orac's exclusive property.  It may in no case \Pbe reproduced, even partly, be communicated to a third party or used for any \Ppossible purpose without ORAC's express written permission. Further legal \Pinformation
  1
 can be found at https://www.oracdecor.com/en/general-sales-conditions
304
ACVALUE_END
170
4
140
1.8
 64
7
171
1
172
0
173
1
174
0
175
1
176
1
 91
1
178
0
145
0.0
170
1
171
1
172
0
173
1
174
0
175
1
176
1
 91
1
178
0
145
0.0
170
1
  0
TEXT
  5
2A1
100
AcDbEntity
 67
1
  8
0
100
AcDbText
 62
2
  6
CONTINUOUS
 10
56.1956228343
 20
16.2958803665
  7
STANDARD
 40
2.5
  1
SCALE  
 72
5
 11
69.9991247798
 21
16.2958803665
100
AcDbText
  0
TEXT
  5
2A2
100
AcDbEntity
 67
1
  8
0
100
AcDbText
 62
2
  6
CONTINUOUS
 10
69.9991247798
 20
16.2958803665
  7
STANDARD
 40
2.5
  1
1:5
 72
5
 11
74.8532103829
 21
16.2958803665
100
AcDbText
  0
LINE
  5
2A3
100
AcDbEntity
 67
1
  8
0
100
AcDbLine
 62
5
  6
CONTINUOUS
 10
0.0
 20
0.0
 11
0.0
 21
210.0
  0
LINE
  5
2A4
100
AcDbEntity
 67
1
  8
0
100
AcDbLine
 62
7
  6
CONTINUOUS
 10
5.0
 20
5.0
 11
5.0
 21
195.0
  0
LINE
  5
2A5
100
AcDbEntity
 67
1
  8
0
100
AcDbLine
 62
5
  6
CONTINUOUS
 10
0.0
 20
0.0
 11
297.0
 21
0.0
  0
LINE
  5
2A6
100
AcDbEntity
 67
1
  8
0
100
AcDbLine
 62
7
  6
CONTINUOUS
 10
5.0
 20
5.0
 11
292.0
 21
5.0
  0
LINE
  5
2A7
100
AcDbEntity
 67
1
  8
0
100
AcDbLine
 62
4
  6
CONTINUOUS
 10
148.5
 20
195.0
 11
148.5
 21
205.0
  0
LINE
  5
2A8
100
AcDbEntity
 67
1
  8
0
100
AcDbLine
 62
7
  6
CONTINUOUS
 10
5.0
 20
195.0
 11
292.0
 21
195.0
  0
LINE
  5
2A9
100
AcDbEntity
 67
1
  8
0
100
AcDbLine
 62
5
  6
CONTINUOUS
 10
0.0
 20
210.0
 11
297.0
 21
210.0
  0
LINE
  5
2AA
100
AcDbEntity
 67
1
  8
0
100
AcDbLine
 62
7
  6
CONTINUOUS
 10
292.0
 20
5.0
 11
292.0
 21
195.0
  0
LINE
  5
2AB
100
AcDbEntity
 67
1
  8
0
100
AcDbLine
 62
5
  6
CONTINUOUS
 10
297.0
 20
0.0
 11
297.0
 21
210.0
  0
LINE
  5
2AC
100
AcDbEntity
 67
1
  8
0
100
AcDbLine
 62
7
  6
CONTINUOUS
 10
159.9809290997
 20
82.6411137002
 11
159.8952014832
 21
70.5905538384
  0
LINE
  5
2AD
100
AcDbEntity
 67
1
  8
0
100
AcDbLine
 62
7
  6
CONTINUOUS
 10
197.1923693839
 20
115.3005384552
 11
197.2279339813
 21
120.2997828815
  0
LINE
  5
2AE
100
AcDbEntity
 67
1
  8
0
100
AcDbLine
 62
7
  6
CONTINUOUS
 10
197.2279339813
 20
120.2997828815
 11
266.1507631419
 21
151.5161756708
  0
LINE
  5
2AF
100
AcDbEntity
 67
1
  8
0
100
AcDbLine
 62
7
  6
CONTINUOUS
 10
210.2198833008
 20
120.2002748312
 11
279.1427124614
 21
151.4166676205
  0
LINE
  5
2B0
100
AcDbEntity
 67
1
  8
0
100
AcDbLine
 62
7
  6
CONTINUOUS
 10
198.111347321
 20
114.3674502776
 11
197.1923693839
 21
115.3005384552
  0
LINE
  5
2B1
100
AcDbEntity
 67
1
  8
0
100
AcDbLine
 62
7
  6
CONTINUOUS
 10
159.9809290997
 20
82.6411137002
 11
189.6097793617
 21
96.060554529
  0
LINE
  5
2B2
100
AcDbEntity
 67
1
  8
0
100
AcDbLine
 62
7
  6
CONTINUOUS
 10
162.1950401495
 20
82.7634041354
 11
163.155661654
 21
83.1984869457
  0
LINE
  5
2B3
100
AcDbEntity
 67
1
  8
0
100
AcDbLine
 62
7
  6
CONTINUOUS
 10
168.8288115538
 20
85.7679588867
 11
169.3458345774
 21
86.0021279419
  0
LINE
  5
2B4
100
AcDbEntity
 67
1
  8
DTM_AXIS
100
AcDbLine
 62
7
  6
CONTINUOUS
 10
178.4651259354
 20
90.1324195224
 11
180.3863689443
 21
91.0025851431
  0
LINE
  5
2B5
100
AcDbEntity
 67
1
  8
0
100
AcDbLine
 62
7
  6
CONTINUOUS
 10
182.6204764373
 20
92.014452733
 11
183.1374994609
 21
92.2486217882
  0
LINE
  5
2B6
100
AcDbEntity
 67
1
  8
DTM_AXIS
100
AcDbLine
 62
7
  6
CONTINUOUS
 10
181.4269796289
 20
91.0789696608
 11
179.6430190169
 21
90.2709817145
  0
LINE
  5
2B7
100
AcDbEntity
 67
1
  8
0
100
AcDbLine
 62
7
  6
CONTINUOUS
 10
164.1962723514
 20
83.2748714692
 11
163.3042920229
 21
82.8708774859
  0
LINE
  5
2B8
100
AcDbEntity
 67
1
  8
0
100
AcDbLine
 62
7
  6
CONTINUOUS
 10
169.9371687469
 20
85.8750270202
 11
170.4559811321
 21
86.1100065095
  0
LINE
  5
2B9
100
AcDbEntity
 67
1
  8
0
100
AcDbLine
 62
7
  6
CONTINUOUS
 10
183.7288336305
 20
92.1215208665
 11
184.2476460155
 21
92.3565003558
  0
LINE
  5
2BA
100
AcDbEntity
 67
1
  8
0
100
AcDbLine
 62
7
  6
CONTINUOUS
 10
197.2279339813
 20
120.2997828815
 11
210.2198833008
 21
120.2002748312
  0
LINE
  5
2BB
100
AcDbEntity
 67
1
  8
DTM_AXIS
100
AcDbLine
 62
7
  6
CONTINUOUS
 10
180.8795455431
 20
75.0367928233
 11
249.8023747037
 21
106.2531856125
  0
LINE
  5
2BC
100
AcDbEntity
 67
1
  8
0
100
AcDbLine
 62
7
  6
CONTINUOUS
 10
266.1507631419
 20
151.5161756708
 11
279.1427124614
 21
151.4166676205
  0
LINE
  5
2BD
100
AcDbEntity
 67
1
  8
0
100
AcDbLine
 62
7
  6
CONTINUOUS
 10
46.3875879773
 20
110.0539200621
 11
46.3875879773
 21
98.0015389079
  0
LINE
  5
2BE
100
AcDbEntity
 67
1
  8
0
100
AcDbLine
 62
7
  6
CONTINUOUS
 10
83.3875879773
 20
143.0015389079
 11
83.3875879773
 21
148.0015389079
  0
LINE
  5
2BF
100
AcDbEntity
 67
1
  8
0
100
AcDbLine
 62
7
  6
CONTINUOUS
 10
84.313727009
 20
142.0753998762
 11
83.3875879773
 21
143.0015389079
  0
LINE
  5
2C0
100
AcDbEntity
 67
1
  8
0
100
AcDbLine
 62
7
  6
CONTINUOUS
 10
83.3875879773
 20
148.0015389079
 11
96.3875879773
 21
148.0015389079
  0
LINE
  5
2C1
100
AcDbEntity
 67
1
  8
0
100
AcDbLine
 62
7
  6
CONTINUOUS
 10
12.0612473532
 20
31.5308803665
 11
12.0612473532
 21
21.5308803665
  0
LINE
  5
2C2
100
AcDbEntity
 67
1
  8
0
100
AcDbLine
 62
7
  6
CONTINUOUS
 10
17.9016127446
 20
31.5308803665
 11
17.6363029087
 21
31.0879819846
  0
LWPOLYLINE
  5
2C3
100
AcDbEntity
 67
1
  8
DTM_AXIS
100
AcDbPolyline
 62
7
  6
CONTINUOUS
 90
79
 70
0
 10
17.6363029087
 20
31.0879819846
 10
17.6332327996
 20
31.0829312116
 10
17.630092641
 20
31.0779186533
 10
17.6268824328
 20
31.0729442416
 10
17.6236015884
 20
31.0680067285
 10
17.6202506944
 20
31.0631072289
 10
17.616831511
 20
31.0582492136
 10
17.6133441034
 20
31.0534327979
 10
17.6097884064
 20
31.0486577241
 10
17.6061659841
 20
31.043926894
 10
17.6024767924
 20
31.0392402443
 10
17.5987208753
 20
31.0345976909
 10
17.5948999296
 20
31.0300020962
 10
17.591013909
 20
31.0254533942
 10
17.5870628597
 20
31.0209514994
 10
17.5830486168
 20
31.0164992363
 10
17.5789711399
 20
31.0120965473
 10
17.5748304693
 20
31.0077433353
 10
17.5706285611
 20
31.0034423592
 10
17.5663653695
 20
30.9991935564
 10
17.5620409402
 20
30.9949968325
 10
17.5576573668
 20
30.9908548915
 10
17.5532146055
 20
30.9867676756
 10
17.5487127
 20
30.9827350845
 10
17.5441538756
 20
30.978759753
 10
17.5395380882
 20
30.9748416256
 10
17.534865382
 20
30.9709805994
 10
17.5301381139
 20
30.9671792322
 10
17.5253562416
 20
30.963437473
 10
17.5205198075
 20
30.9597552155
 10
17.5156312962
 20
30.9561349291
 10
17.5106906666
 20
30.9525765674
 10
17.5056979598
 20
30.9490800216
 10
17.5006557845
 20
30.9456476636
 10
17.495564101
 20
30.9422794521
 10
17.4904229491
 20
30.9389752764
 10
17.4852350562
 20
30.9357374013
 10
17.480000384
 20
30.9325657905
 10
17.474718971
 20
30.9294603324
 10
17.4693936595
 20
30.9264231765
 10
17.4640244113
 20
30.9234542914
 10
17.4586112647
 20
30.9205535657
 10
17.4531571772
 20
30.9177230276
 10
17.4476621173
 20
30.9149626542
 10
17.4421261164
 20
30.912272332
 10
17.4365522257
 20
30.9096539517
 10
17.4309404185
 20
30.9071074971
 10
17.4252907215
 20
30.9046328556
 10
17.4196062668
 20
30.9022317728
 10
17.4138870253
 20
30.8999042365
 10
17.4081330261
 20
30.8976501383
 10
17.4023474883
 20
30.8954710793
 10
17.3965303848
 20
30.8933670541
 10
17.3906817428
 20
30.8913379569
 10
17.3848048622
 20
30.889385238
 10
17.378899716
 20
30.8875088988
 10
17.3729663313
 20
30.8857088368
 10
17.3670080893
 20
30.8839863478
 10
17.36102497
 20
30.882341442
 10
17.3550169935
 20
30.8807740188
 10
17.3489876011
 20
30.8792852099
 10
17.3429367755
 20
30.8778750325
 10
17.336864534
 20
30.8765433904
 10
17.3307743707
 20
30.8752912473
 10
17.3246662706
 20
30.8741186276
 10
17.3185402486
 20
30.8730254402
 10
17.3123998442
 20
30.8720124775
 10
17.306245036
 20
30.871079771
 10
17.3000758454
 20
30.8702272353
 10
17.293895876
 20
30.8694554906
 10
17.287705112
 20
30.8687645772
 10
17.2815035691
 20
30.868154414
 10
17.2752948986
 20
30.8676254416
 10
17.2690789464
 20
30.8671777096
 10
17.2628558664
 20
30.866811141
 10
17.2566297717
 20
30.8665259898
 10
17.2504020331
 20
30.8663223359
 10
17.2441712797
 20
30.8662000857
 10
17.2379375115
 20
30.8661592356
  0
LINE
  5
2C4
100
AcDbEntity
 67
1
  8
0
100
AcDbLine
 62
7
  6
CONTINUOUS
 10
53.591150514
 20
29.7566740455
 11
53.5504302134
 21
31.5308803665
  0
LINE
  5
2C5
100
AcDbEntity
 67
1
  8
0
100
AcDbLine
 62
7
  6
CONTINUOUS
 10
50.4715636762
 20
24.2367006337
 11
50.4698539508
 21
24.3237168613
  0
LINE
  5
2C6
100
AcDbEntity
 67
1
  8
0
100
AcDbLine
 62
7
  6
CONTINUOUS
 10
53.6258956804
 20
27.9114911794
 11
53.591150514
 21
29.7566740455
  0
LINE
  5
2C7
100
AcDbEntity
 67
1
  8
0
100
AcDbLine
 62
7
  6
CONTINUOUS
 10
53.6454256555
 20
26.5520581087
 11
53.6258956804
 21
27.9114911794
  0
LINE
  5
2C8
100
AcDbEntity
 67
1
  8
0
100
AcDbLine
 62
7
  6
CONTINUOUS
 10
50.4698539508
 20
24.3237168613
 11
50.467813608
 21
24.4762655704
  0
LINE
  5
2C9
100
AcDbEntity
 67
1
  8
0
100
AcDbLine
 62
7
  6
CONTINUOUS
 10
53.6541079038
 20
25.6488615835
 11
53.6454256555
 21
26.5520581087
  0
LINE
  5
2CA
100
AcDbEntity
 67
1
  8
0
100
AcDbLine
 62
7
  6
CONTINUOUS
 10
50.467813608
 20
24.4762655704
 11
50.4664351307
 21
24.6558867756
  0
LINE
  5
2CB
100
AcDbEntity
 67
1
  8
0
100
AcDbLine
 62
7
  6
CONTINUOUS
 10
53.6566531054
 20
25.0966747156
 11
53.6541079038
 21
25.6488615835
  0
LINE
  5
2CC
100
AcDbEntity
 67
1
  8
0
100
AcDbLine
 62
7
  6
CONTINUOUS
 10
50.4664351307
 20
24.6558867756
 11
50.4657064891
 21
24.9378952014
  0
LINE
  5
2CD
100
AcDbEntity
 67
1
  8
0
100
AcDbLine
 62
7
  6
CONTINUOUS
 10
53.6565865935
 20
24.7908164077
 11
53.6566531054
 21
25.0966747156
  0
LINE
  5
2CE
100
AcDbEntity
 67
1
  8
0
100
AcDbLine
 62
7
  6
CONTINUOUS
 10
50.4657064891
 20
24.9378952014
 11
50.4663273619
 21
25.2680858673
  0
LINE
  5
2CF
100
AcDbEntity
 67
1
  8
0
100
AcDbLine
 62
7
  6
CONTINUOUS
 10
53.655675501
 20
24.5929581858
 11
53.6565865935
 21
24.7908164077
  0
LINE
  5
2D0
100
AcDbEntity
 67
1
  8
0
100
AcDbLine
 62
7
  6
CONTINUOUS
 10
50.4663273619
 20
25.2680858673
 11
50.4683868016
 21
25.6488614261
  0
LINE
  5
2D1
100
AcDbEntity
 67
1
  8
0
100
AcDbLine
 62
7
  6
CONTINUOUS
 10
50.4683868016
 20
25.6488614261
 11
50.4719524299
 21
26.0774447561
  0
LINE
  5
2D2
100
AcDbEntity
 67
1
  8
0
100
AcDbLine
 62
7
  6
CONTINUOUS
 10
53.6540707714
 20
24.4224308159
 11
53.655675501
 21
24.5929581858
  0
LINE
  5
2D3
100
AcDbEntity
 67
1
  8
0
100
AcDbLine
 62
7
  6
CONTINUOUS
 10
50.4719524299
 20
26.0774447561
 11
50.4785893768
 21
26.6772953645
  0
LINE
  5
2D4
100
AcDbEntity
 67
1
  8
0
100
AcDbLine
 62
7
  6
CONTINUOUS
 10
50.4785893768
 20
26.6772953645
 11
50.4876527132
 21
27.3411194858
  0
LINE
  5
2D5
100
AcDbEntity
 67
1
  8
0
100
AcDbLine
 62
7
  6
CONTINUOUS
 10
53.6526407556
 20
24.3237168528
 11
53.6540707714
 21
24.4224308159
  0
LINE
  5
2D6
100
AcDbEntity
 67
1
  8
0
100
AcDbLine
 62
7
  6
CONTINUOUS
 10
50.4876527132
 20
27.3411194858
 11
50.4990608227
 21
28.0587055193
  0
LINE
  5
2D7
100
AcDbEntity
 67
1
  8
0
100
AcDbLine
 62
7
  6
CONTINUOUS
 10
50.4990608227
 20
28.0587055193
 11
50.5126089297
 21
28.8155494987
  0
LINE
  5
2D8
100
AcDbEntity
 67
1
  8
0
100
AcDbLine
 62
7
  6
CONTINUOUS
 10
50.5126089297
 20
28.8155494987
 11
50.528045458
 21
29.5978808247
  0
LINE
  5
2D9
100
AcDbEntity
 67
1
  8
0
100
AcDbLine
 62
7
  6
CONTINUOUS
 10
53.6509310303
 20
24.2367006338
 11
53.6526407556
 21
24.3237168528
  0
LINE
  5
2DA
100
AcDbEntity
 67
1
  8
0
100
AcDbLine
 62
7
  6
CONTINUOUS
 10
50.528045458
 20
29.5978808247
 11
50.5450705107
 21
30.3918705946
  0
LINE
  5
2DB
100
AcDbEntity
 67
1
  8
0
100
AcDbLine
 62
7
  6
CONTINUOUS
 10
50.5450705107
 20
30.3918705946
 11
50.569573473
 21
31.4330722786
  0
LINE
  5
2DC
100
AcDbEntity
 67
1
  8
0
100
AcDbLine
 62
7
  6
CONTINUOUS
 10
50.569573473
 20
31.4330722786
 11
50.5720644931
 21
31.5308803665
  0
LWPOLYLINE
  5
2DD
100
AcDbEntity
 67
1
  8
0
100
AcDbPolyline
 62
7
  6
CONTINUOUS
 90
16
 70
0
 10
53.6509310303
 20
24.2367006338
 10
53.6502372995
 20
24.2280024704
 10
53.648626514
 20
24.2195009824
 10
53.6460986737
 20
24.2111936678
 10
53.6426373557
 20
24.2030661798
 10
53.6382589829
 20
24.1951281223
 10
53.6330128242
 20
24.1874117013
 10
53.6268898192
 20
24.1799122975
 10
53.6198990283
 20
24.1726271322
 10
53.6121169026
 20
24.1655886993
 10
53.6035396776
 20
24.1587962873
 10
53.5941711178
 20
24.1522407055
 10
53.5840989683
 20
24.1459397303
 10
53.5733279849
 20
24.1398926806
 10
53.5618534116
 20
24.134089138
 10
53.5548648074
 20
24.1308803665
  0
LWPOLYLINE
  5
2DE
100
AcDbEntity
 67
1
  8
0
100
AcDbPolyline
 62
7
  6
CONTINUOUS
 90
16
 70
0
 10
50.5676297634
 20
24.1308803665
 10
50.5606302259
 20
24.1340944586
 10
50.5491577003
 20
24.1398974946
 10
50.5383887398
 20
24.1459438711
 10
50.5283187079
 20
24.1522438437
 10
50.5189522411
 20
24.1587982409
 10
50.5103765523
 20
24.165589756
 10
50.5025950562
 20
24.1726278544
 10
50.4956043381
 20
24.179913
 10
50.4894813665
 20
24.1874123909
 10
50.4842353709
 20
24.1951287013
 10
50.4798571219
 20
24.2030666533
 10
50.4763958999
 20
24.2111940315
 10
50.4738681317
 20
24.2195012291
 10
50.4722573904
 20
24.2280025959
 10
50.4715636762
 20
24.2367006337
  0
LINE
  5
2DF
100
AcDbEntity
 67
1
  8
DTM_AXIS
100
AcDbLine
 62
7
  6
CONTINUOUS
 10
12.0612473532
 20
21.5308803665
 11
136.7504256072
 21
21.5308803665
  0
LINE
  5
2E0
100
AcDbEntity
 67
1
  8
0
100
AcDbLine
 62
7
  6
CONTINUOUS
 10
12.0612473532
 20
21.5308803665
 11
136.7504256072
 21
21.5308803665
  0
LINE
  5
2E1
100
AcDbEntity
 67
1
  8
0
100
AcDbLine
 62
7
  6
CONTINUOUS
 10
12.0612473532
 20
24.1308803665
 11
136.223125583
 21
24.1308803665
  0
LINE
  5
2E2
100
AcDbEntity
 67
1
  8
DTM_AXIS
100
AcDbLine
 62
7
  6
CONTINUOUS
 10
117.2379374382
 20
30.8661592356
 11
106.8845573829
 21
30.8661592356
  0
LINE
  5
2E3
100
AcDbEntity
 67
1
  8
0
100
AcDbLine
 62
7
  6
CONTINUOUS
 10
17.2379375115
 20
30.8661592356
 11
12.0612473532
 21
30.8661592356
  0
LINE
  5
2E4
100
AcDbEntity
 67
1
  8
0
100
AcDbLine
 62
7
  6
CONTINUOUS
 10
50.5557595738
 20
30.8661592355
 11
53.566735133
 21
30.8661592355
  0
LINE
  5
2E5
100
AcDbEntity
 67
1
  8
0
100
AcDbLine
 62
7
  6
CONTINUOUS
 10
130.5969595742
 20
30.8661592355
 11
133.6079351326
 21
30.8661592355
  0
LINE
  5
2E6
100
AcDbEntity
 67
1
  8
0
100
AcDbLine
 62
7
  6
CONTINUOUS
 10
12.0612473532
 20
31.0879819893
 11
17.6363029114
 21
31.0879819893
  0
LINE
  5
2E7
100
AcDbEntity
 67
1
  8
0
100
AcDbLine
 62
7
  6
CONTINUOUS
 10
50.5609519362
 20
31.0879819893
 11
53.5615427703
 21
31.0879819893
  0
LINE
  5
2E8
100
AcDbEntity
 67
1
  8
DTM_AXIS
100
AcDbLine
 62
7
  6
CONTINUOUS
 10
106.4861917951
 20
31.0879819893
 11
117.6363029114
 21
31.0879819893
  0
LINE
  5
2E9
100
AcDbEntity
 67
1
  8
0
100
AcDbLine
 62
7
  6
CONTINUOUS
 10
130.6021519361
 20
31.0879819893
 11
133.6027427704
 21
31.0879819893
  0
LWPOLYLINE
  5
2EA
100
AcDbEntity
 67
1
  8
DTM_AXIS
100
AcDbPolyline
 62
7
  6
CONTINUOUS
 90
79
 70
0
 10
106.8845573829
 20
30.8661592356
 10
106.8783234808
 20
30.8662000862
 10
106.8720926157
 20
30.8663223382
 10
106.8658647878
 20
30.8665259951
 10
106.8596386302
 20
30.8668111512
 10
106.8534155097
 20
30.8671777259
 10
106.8471995267
 20
30.867625464
 10
106.840990833
 20
30.8681544419
 10
106.8347892768
 20
30.8687646105
 10
106.8285985031
 20
30.8694555291
 10
106.8224185267
 20
30.870227279
 10
106.8162493328
 20
30.8710798198
 10
106.8100945218
 20
30.8720125314
 10
106.8039541144
 20
30.8730254991
 10
106.79782809
 20
30.8741186916
 10
106.7917199875
 20
30.8752913165
 10
106.7856298218
 20
30.8765434649
 10
106.7795575779
 20
30.8778751123
 10
106.7735067503
 20
30.8792852951
 10
106.7674773564
 20
30.8807741094
 10
106.7614693788
 20
30.8823415378
 10
106.7554862586
 20
30.8839864489
 10
106.749528016
 20
30.8857089432
 10
106.7435946309
 20
30.8875090105
 10
106.7376894844
 20
30.8893853549
 10
106.7318126035
 20
30.8913380792
 10
106.7259639612
 20
30.8933671818
 10
106.7201468576
 20
30.8954712124
 10
106.7143613194
 20
30.8976502769
 10
106.7086073199
 20
30.8999043807
 10
106.7028880781
 20
30.9022319227
 10
106.697203623
 20
30.9046330114
 10
106.6915539255
 20
30.9071076587
 10
106.6859421181
 20
30.9096541192
 10
106.6803682275
 20
30.9122725052
 10
106.6748322269
 20
30.9149628332
 10
106.6693371673
 20
30.9177232125
 10
106.6638830801
 20
30.9205537564
 10
106.658469934
 20
30.9234544879
 10
106.6531006862
 20
30.9264233791
 10
106.6477753748
 20
30.9294605413
 10
106.6424939617
 20
30.9325660058
 10
106.6372592896
 20
30.9357376231
 10
106.6320713969
 20
30.9389755048
 10
106.6269302451
 20
30.9422796871
 10
106.6218385619
 20
30.9456479053
 10
106.6167963869
 20
30.94908027
 10
106.6118036805
 20
30.9525768226
 10
106.6068630514
 20
30.9561351912
 10
106.6019745408
 20
30.9597554845
 10
106.5971381074
 20
30.963437749
 10
106.5923562359
 20
30.9671795151
 10
106.5876289689
 20
30.9709808893
 10
106.5829562638
 20
30.9748419225
 10
106.5783404777
 20
30.9787600569
 10
106.5737816547
 20
30.9827353955
 10
106.5692797507
 20
30.9867679936
 10
106.5648369909
 20
30.9908552168
 10
106.560453419
 20
30.9949971651
 10
106.5561289912
 20
30.9991938965
 10
106.5518658011
 20
31.0034427069
 10
106.5476638946
 20
31.0077436907
 10
106.5435232258
 20
31.0120969104
 10
106.5394457513
 20
31.0164996066
 10
106.5354315117
 20
31.020951876
 10
106.5314804663
 20
31.0254537767
 10
106.52759445
 20
31.0300024841
 10
106.5237735086
 20
31.0345980843
 10
106.5200175964
 20
31.0392406428
 10
106.5163284109
 20
31.0439272956
 10
106.5127059949
 20
31.0486581286
 10
106.5091503056
 20
31.0534332033
 10
106.5056629118
 20
31.0582496105
 10
106.5022437476
 20
31.0631076101
 10
106.4988928789
 20
31.0680070847
 10
106.4956120727
 20
31.0729445489
 10
106.4924019181
 20
31.0779188829
 10
106.4892618261
 20
31.0829313394
 10
106.4861917966
 20
31.0879819866
  0
LINE
  5
2EB
100
AcDbEntity
 67
1
  8
0
100
AcDbLine
 62
7
  6
CONTINUOUS
 10
12.0612473532
 20
31.5308803665
 11
137.2744375841
 21
31.5308803665
  0
LWPOLYLINE
  5
2EC
100
AcDbEntity
 67
1
  8
0
100
AcDbPolyline
 62
7
  6
CONTINUOUS
 90
16
 70
0
 10
130.6094301993
 20
24.1308803665
 10
130.6018246932
 20
24.1343750778
 10
130.5903518743
 20
24.1401821434
 10
130.5795826241
 20
24.1462326793
 10
130.5695123058
 20
24.1525369454
 10
130.5601455562
 20
24.1590957661
 10
130.5515696064
 20
24.165891817
 10
130.5437878744
 20
24.1729345631
 10
130.5367969421
 20
24.180224469
 10
130.5306737863
 20
24.1877287177
 10
130.5254276324
 20
24.1954499869
 10
130.521049255
 20
24.2033929964
 10
130.5175879542
 20
24.2115255073
 10
130.5150601634
 20
24.2198379052
 10
130.5134494493
 20
24.2283445487
 10
130.5127558118
 20
24.2370479404
  0
LINE
  5
2ED
100
AcDbEntity
 67
1
  8
0
100
AcDbLine
 62
7
  6
CONTINUOUS
 10
106.4861917966
 20
31.0879819866
 11
106.2208819619
 21
31.5308803665
  0
LINE
  5
2EE
100
AcDbEntity
 67
1
  8
0
100
AcDbLine
 62
7
  6
CONTINUOUS
 10
117.9016127446
 20
31.5308803665
 11
117.6363029087
 21
31.0879819846
  0
LWPOLYLINE
  5
2EF
100
AcDbEntity
 67
1
  8
DTM_AXIS
100
AcDbPolyline
 62
7
  6
CONTINUOUS
 90
79
 70
0
 10
117.6363029087
 20
31.0879819846
 10
117.6332327991
 20
31.0829312108
 10
117.63009264
 20
31.0779186518
 10
117.6268824313
 20
31.0729442393
 10
117.6236015864
 20
31.0680067255
 10
117.6202506918
 20
31.0631072252
 10
117.6168315078
 20
31.0582492092
 10
117.6133440997
 20
31.0534327928
 10
117.6097884021
 20
31.0486577183
 10
117.6061659791
 20
31.0439268876
 10
117.6024767867
 20
31.0392402372
 10
117.598720869
 20
31.0345976832
 10
117.5948999226
 20
31.0300020879
 10
117.5910139013
 20
31.0254533853
 10
117.5870628513
 20
31.0209514899
 10
117.5830486077
 20
31.0164992263
 10
117.57897113
 20
31.0120965367
 10
117.5748304586
 20
31.0077433242
 10
117.5706285496
 20
31.0034423476
 10
117.5663653572
 20
30.9991935443
 10
117.5620409271
 20
30.9949968199
 10
117.5576573528
 20
30.9908548785
 10
117.5532145906
 20
30.9867676621
 10
117.5487126843
 20
30.9827350706
 10
117.544153859
 20
30.9787597387
 10
117.5395380707
 20
30.9748416109
 10
117.5348653635
 20
30.9709805844
 10
117.5301380945
 20
30.9671792168
 10
117.5253562212
 20
30.9634374573
 10
117.5205197862
 20
30.9597551995
 10
117.515631274
 20
30.9561349128
 10
117.5106906433
 20
30.9525765509
 10
117.5056979356
 20
30.9490800048
 10
117.5006557593
 20
30.9456476467
 10
117.4955640748
 20
30.942279435
 10
117.4904229218
 20
30.9389752591
 10
117.4852350279
 20
30.9357373839
 10
117.4800003547
 20
30.932565773
 10
117.4747189405
 20
30.9294603148
 10
117.469393628
 20
30.9264231588
 10
117.4640243788
 20
30.9234542736
 10
117.4586112311
 20
30.920553548
 10
117.4531571424
 20
30.9177230099
 10
117.4476620815
 20
30.9149626365
 10
117.4421260794
 20
30.9122723143
 10
117.4365521877
 20
30.9096539341
 10
117.4309403794
 20
30.9071074797
 10
117.4252906813
 20
30.9046328383
 10
117.4196062255
 20
30.9022317556
 10
117.4138869829
 20
30.8999042195
 10
117.4081329825
 20
30.8976501216
 10
117.4023474436
 20
30.8954710628
 10
117.396530339
 20
30.8933670379
 10
117.3906816959
 20
30.8913379409
 10
117.3848048142
 20
30.8893852223
 10
117.3788996668
 20
30.8875088835
 10
117.372966281
 20
30.8857088219
 10
117.3670080379
 20
30.8839863333
 10
117.3610249175
 20
30.8823414279
 10
117.3550169399
 20
30.8807740052
 10
117.3489875464
 20
30.8792851968
 10
117.3429367197
 20
30.8778750198
 10
117.3368644771
 20
30.8765433783
 10
117.3307743127
 20
30.8752912358
 10
117.3246662114
 20
30.8741186166
 10
117.3185401884
 20
30.8730254298
 10
117.3123997829
 20
30.8720124678
 10
117.3062449736
 20
30.8710797619
 10
117.300075782
 20
30.870227227
 10
117.2938958116
 20
30.8694554829
 10
117.2877050465
 20
30.8687645704
 10
117.2815035026
 20
30.8681544079
 10
117.275294831
 20
30.8676254363
 10
117.2690788778
 20
30.8671777051
 10
117.2628557969
 20
30.8668111374
 10
117.2566297011
 20
30.866525987
 10
117.2504019616
 20
30.8663223341
 10
117.2441712073
 20
30.8662000847
 10
117.2379374382
 20
30.8661592356
  0
LINE
  5
2F0
100
AcDbEntity
 67
1
  8
0
100
AcDbLine
 62
7
  6
CONTINUOUS
 10
136.9414470196
 20
30.8964135297
 11
137.2744375841
 21
31.5308803665
  0
LINE
  5
2F1
100
AcDbEntity
 67
1
  8
0
100
AcDbLine
 62
7
  6
CONTINUOUS
 10
136.3354333902
 20
25.9793301917
 11
136.6644574209
 21
26.5908459373
  0
LINE
  5
2F2
100
AcDbEntity
 67
1
  8
0
100
AcDbLine
 62
7
  6
CONTINUOUS
 10
136.6644574209
 20
26.5908459373
 11
137.0128014968
 21
27.1942441016
  0
LINE
  5
2F3
100
AcDbEntity
 67
1
  8
0
100
AcDbLine
 62
7
  6
CONTINUOUS
 10
133.632347032
 20
29.7568403276
 11
133.5916302135
 21
31.5308803665
  0
LINE
  5
2F4
100
AcDbEntity
 67
1
  8
0
100
AcDbLine
 62
7
  6
CONTINUOUS
 10
130.5127558118
 20
24.2370479404
 11
130.5110474953
 21
24.3240981737
  0
LINE
  5
2F5
100
AcDbEntity
 67
1
  8
0
100
AcDbLine
 62
7
  6
CONTINUOUS
 10
133.667088815
 20
27.9119066947
 11
133.632347032
 21
29.7568403276
  0
LINE
  5
2F6
100
AcDbEntity
 67
1
  8
0
100
AcDbLine
 62
7
  6
CONTINUOUS
 10
133.6866192826
 20
26.5525945401
 11
133.667088815
 21
27.9119066947
  0
LINE
  5
2F7
100
AcDbEntity
 67
1
  8
0
100
AcDbLine
 62
7
  6
CONTINUOUS
 10
130.5110474953
 20
24.3240981737
 11
130.509009174
 21
24.4766943534
  0
LINE
  5
2F8
100
AcDbEntity
 67
1
  8
0
100
AcDbLine
 62
7
  6
CONTINUOUS
 10
133.6953040436
 20
25.6494190119
 11
133.6866192826
 21
26.5525945401
  0
LINE
  5
2F9
100
AcDbEntity
 67
1
  8
0
100
AcDbLine
 62
7
  6
CONTINUOUS
 10
130.509009174
 20
24.4766943534
 11
130.5076326215
 21
24.6563576548
  0
LINE
  5
2FA
100
AcDbEntity
 67
1
  8
0
100
AcDbLine
 62
7
  6
CONTINUOUS
 10
133.6978521153
 20
25.0972043125
 11
133.6953040436
 21
25.6494190119
  0
LINE
  5
2FB
100
AcDbEntity
 67
1
  8
0
100
AcDbLine
 62
7
  6
CONTINUOUS
 10
130.5076326215
 20
24.6563576548
 11
130.506906378
 21
24.9384079586
  0
LINE
  5
2FC
100
AcDbEntity
 67
1
  8
0
100
AcDbLine
 62
7
  6
CONTINUOUS
 10
133.6977878767
 20
24.7913104316
 11
133.6978521153
 21
25.0972043125
  0
LINE
  5
2FD
100
AcDbEntity
 67
1
  8
0
100
AcDbLine
 62
7
  6
CONTINUOUS
 10
130.506906378
 20
24.9384079586
 11
130.5075293873
 21
25.2686290971
  0
LINE
  5
2FE
100
AcDbEntity
 67
1
  8
0
100
AcDbLine
 62
7
  6
CONTINUOUS
 10
133.6968786418
 20
24.5934157216
 11
133.6977878767
 21
24.7913104316
  0
LINE
  5
2FF
100
AcDbEntity
 67
1
  8
0
100
AcDbLine
 62
7
  6
CONTINUOUS
 10
130.5075293873
 20
25.2686290971
 11
130.5095906618
 21
25.6494188606
  0
LINE
  5
300
100
AcDbEntity
 67
1
  8
0
100
AcDbLine
 62
7
  6
CONTINUOUS
 10
130.5095906618
 20
25.6494188606
 11
130.5131577642
 21
26.0780008327
  0
LINE
  5
301
100
AcDbEntity
 67
1
  8
0
100
AcDbLine
 62
7
  6
CONTINUOUS
 10
133.6952758669
 20
24.4228442275
 11
133.6968786418
 21
24.5934157216
  0
LINE
  5
302
100
AcDbEntity
 67
1
  8
0
100
AcDbLine
 62
7
  6
CONTINUOUS
 10
130.5131577642
 20
26.0780008327
 11
130.5197959362
 21
26.6778241267
  0
LINE
  5
303
100
AcDbEntity
 67
1
  8
0
100
AcDbLine
 62
7
  6
CONTINUOUS
 10
130.5197959362
 20
26.6778241267
 11
130.528859755
 21
27.3415950463
  0
LINE
  5
304
100
AcDbEntity
 67
1
  8
0
100
AcDbLine
 62
7
  6
CONTINUOUS
 10
133.693847211
 20
24.3240981664
 11
133.6952758669
 21
24.4228442275
  0
LINE
  5
305
100
AcDbEntity
 67
1
  8
0
100
AcDbLine
 62
7
  6
CONTINUOUS
 10
130.528859755
 20
27.3415950463
 11
130.5402675686
 21
28.0591040817
  0
LINE
  5
306
100
AcDbEntity
 67
1
  8
0
100
AcDbLine
 62
7
  6
CONTINUOUS
 10
130.5402675686
 20
28.0591040817
 11
130.5538145746
 21
28.8158492029
  0
LINE
  5
307
100
AcDbEntity
 67
1
  8
0
100
AcDbLine
 62
7
  6
CONTINUOUS
 10
130.5538145746
 20
28.8158492029
 11
130.5692493633
 21
29.5980704055
  0
LINE
  5
308
100
AcDbEntity
 67
1
  8
0
100
AcDbLine
 62
7
  6
CONTINUOUS
 10
133.6921388946
 20
24.2370479404
 11
133.693847211
 21
24.3240981664
  0
LINE
  5
309
100
AcDbEntity
 67
1
  8
0
100
AcDbLine
 62
7
  6
CONTINUOUS
 10
130.5692493633
 20
29.5980704055
 11
130.5862720961
 21
30.3919417799
  0
LINE
  5
30A
100
AcDbEntity
 67
1
  8
0
100
AcDbLine
 62
7
  6
CONTINUOUS
 10
130.5862720961
 20
30.3919417799
 11
130.610773473
 21
31.4330722787
  0
LINE
  5
30B
100
AcDbEntity
 67
1
  8
0
100
AcDbLine
 62
7
  6
CONTINUOUS
 10
130.610773473
 20
31.4330722787
 11
130.613264493
 21
31.5308803665
  0
LWPOLYLINE
  5
30C
100
AcDbEntity
 67
1
  8
0
100
AcDbPolyline
 62
7
  6
CONTINUOUS
 90
16
 70
0
 10
133.6921388946
 20
24.2370479404
 10
133.6914452407
 20
24.2283444231
 10
133.6898344823
 20
24.2198376584
 10
133.6873066195
 20
24.2115251436
 10
133.6838452227
 20
24.203392523
 10
133.6794667216
 20
24.1954494078
 10
133.6742204048
 20
24.1877280281
 10
133.6680972154
 20
24.1802237665
 10
133.6611062105
 20
24.1729338409
 10
133.6533238492
 20
24.1658907602
 10
133.6447463639
 20
24.1590938122
 10
133.6353775222
 20
24.1525338066
 10
133.6253050871
 20
24.1462285376
 10
133.6145338149
 20
24.1401773284
 10
133.6030589492
 20
24.134369756
 10
133.595464315
 20
24.1308803665
  0
LINE
  5
30D
100
AcDbEntity
 67
1
  8
0
100
AcDbLine
 62
7
  6
CONTINUOUS
 10
136.1316518092
 20
24.8782141905
 11
136.3354333902
 21
25.9793301917
  0
LINE
  5
30E
100
AcDbEntity
 67
1
  8
0
100
AcDbLine
 62
7
  6
CONTINUOUS
 10
136.7283553969
 20
30.1268402627
 11
136.9414470196
 21
30.8964135297
  0
LINE
  5
30F
100
AcDbEntity
 67
1
  8
0
100
AcDbLine
 62
7
  6
CONTINUOUS
 10
137.0128014968
 20
27.1942441016
 11
137.2085934052
 21
27.8129662231
  0
LINE
  5
310
100
AcDbEntity
 67
1
  8
0
100
AcDbLine
 62
7
  6
CONTINUOUS
 10
137.1087463904
 20
28.5721212895
 11
136.8539095808
 21
29.3535004354
  0
LINE
  5
311
100
AcDbEntity
 67
1
  8
0
100
AcDbLine
 62
7
  6
CONTINUOUS
 10
136.553723394
 20
22.5303481326
 11
136.2736812587
 21
23.7178443144
  0
LINE
  5
312
100
AcDbEntity
 67
1
  8
0
100
AcDbLine
 62
7
  6
CONTINUOUS
 10
136.7504256072
 20
21.5308803665
 11
136.553723394
 21
22.5303481326
  0
LINE
  5
313
100
AcDbEntity
 67
1
  8
0
100
AcDbLine
 62
7
  6
CONTINUOUS
 10
136.8539095808
 20
29.3535004354
 11
136.7283553969
 21
30.1268402627
  0
LINE
  5
314
100
AcDbEntity
 67
1
  8
0
100
AcDbLine
 62
7
  6
CONTINUOUS
 10
137.2085934052
 20
27.8129662231
 11
137.1087463904
 21
28.5721212895
  0
LINE
  5
315
100
AcDbEntity
 67
1
  8
0
100
AcDbLine
 62
7
  6
CONTINUOUS
 10
136.2736812587
 20
23.7178443144
 11
136.1316518092
 21
24.8782141905
  0
ARC
  5
316
100
AcDbEntity
 67
1
  8
0
100
AcDbCircle
 62
7
  6
CONTINUOUS
 10
229.1811378012
 20
151.7602484015
 40
49.9619705683
100
AcDbArc
 50
294.3772971801
 51
359.6059888326
  0
ARC
  5
317
100
AcDbEntity
 67
1
  8
0
100
AcDbCircle
 62
7
  6
CONTINUOUS
 10
160.2583086406
 20
120.5438556122
 40
49.9619705683
100
AcDbArc
 50
294.3772971801
 51
359.6059888326
  0
ARC
  5
318
100
AcDbEntity
 67
1
  8
0
100
AcDbCircle
 62
7
  6
CONTINUOUS
 10
160.2784963764
 20
120.5232284381
 40
49.9341457087
100
AcDbArc
 50
269.560192829
 51
294.365967245
  0
ARC
  5
319
100
AcDbEntity
 67
1
  8
0
100
AcDbCircle
 62
7
  6
CONTINUOUS
 10
165.7215968552
 20
128.2887190226
 40
42.4435911635
100
AcDbArc
 50
276.4042286742
 51
289.213367656
  0
ARC
  5
31A
100
AcDbEntity
 67
1
  8
0
100
AcDbCircle
 62
7
  6
CONTINUOUS
 10
165.2346583197
 20
127.945476995
 40
42.3324472765
100
AcDbArc
 50
276.377727674
 51
289.5914210875
  0
ARC
  5
31B
100
AcDbEntity
 67
1
  8
0
100
AcDbCircle
 62
7
  6
CONTINUOUS
 10
174.7011200084
 20
131.688752267
 40
41.726448828
100
AcDbArc
 50
272.0658803109
 51
275.1754994479
  0
ARC
  5
31C
100
AcDbEntity
 67
1
  8
0
100
AcDbCircle
 62
7
  6
CONTINUOUS
 10
179.6902368765
 20
133.3944320868
 40
41.2902176299
100
AcDbArc
 50
276.3367542979
 51
278.7677494002
  0
ARC
  5
31D
100
AcDbEntity
 67
1
  8
0
100
AcDbCircle
 62
7
  6
CONTINUOUS
 10
179.2028969803
 20
133.0686116462
 40
41.1964572692
100
AcDbArc
 50
276.3072210128
 51
279.1594453983
  0
ARC
  5
31E
100
AcDbEntity
 67
1
  8
0
100
AcDbCircle
 62
7
  6
CONTINUOUS
 10
165.9643057163
 20
126.5650880706
 40
40.7036733222
100
AcDbArc
 50
274.7654172034
 51
276.3353440023
  0
ARC
  5
31F
100
AcDbEntity
 67
1
  8
0
100
AcDbCircle
 62
7
  6
CONTINUOUS
 10
179.7559706106
 20
132.811581807
 40
40.7036732118
100
AcDbArc
 50
274.7654172009
 51
276.3353440862
  0
ARC
  5
320
100
AcDbEntity
 67
1
  8
0
100
AcDbCircle
 62
7
  6
CONTINUOUS
 10
158.830570682
 20
123.2668327588
 40
40.6429253997
100
AcDbArc
 50
274.7484463066
 51
276.3195699723
  0
ARC
  5
321
100
AcDbEntity
 67
1
  8
0
100
AcDbCircle
 62
7
  6
CONTINUOUS
 10
179.273050505
 20
132.4583531972
 40
40.582185695
100
AcDbArc
 50
274.7314537706
 51
276.3034285739
  0
ARC
  5
322
100
AcDbEntity
 67
1
  8
0
100
AcDbCircle
 62
7
  6
CONTINUOUS
 10
165.4813856345
 20
126.2118592165
 40
40.58218556
100
AcDbArc
 50
274.7314537681
 51
276.3034284943
  0
ARC
  5
323
100
AcDbEntity
 67
1
  8
0
100
AcDbCircle
 62
7
  6
CONTINUOUS
 10
179.8110205134
 20
132.1069945685
 40
39.9969484248
100
AcDbArc
 50
271.5909327206
 51
274.7706815641
  0
ARC
  5
324
100
AcDbEntity
 67
1
  8
0
100
AcDbCircle
 62
7
  6
CONTINUOUS
 10
166.0193556307
 20
125.8605007041
 40
39.9969484066
100
AcDbArc
 50
271.5909327202
 51
274.7706815654
  0
ARC
  5
325
100
AcDbEntity
 67
1
  8
0
100
AcDbCircle
 62
7
  6
CONTINUOUS
 10
158.8880532695
 20
122.5327846184
 40
39.9066383729
100
AcDbArc
 50
271.5692878371
 51
274.7534428177
  0
ARC
  5
326
100
AcDbEntity
 67
1
  8
0
100
AcDbCircle
 62
7
  6
CONTINUOUS
 10
165.5412721228
 20
125.4484736121
 40
39.8164617406
100
AcDbArc
 50
271.5476040329
 51
274.7361822066
  0
ARC
  5
327
100
AcDbEntity
 67
1
  8
0
100
AcDbCircle
 62
7
  6
CONTINUOUS
 10
179.3329370071
 20
131.6949674403
 40
39.8164617224
100
AcDbArc
 50
271.5476040326
 51
274.7361822076
  0
ARC
  5
328
100
AcDbEntity
 67
1
  8
0
100
AcDbCircle
 62
7
  6
CONTINUOUS
 10
177.5143116182
 20
129.1146327166
 40
38.2201109827
100
AcDbArc
 50
271.0549180665
 51
274.3095643909
  0
ARC
  5
329
100
AcDbEntity
 67
1
  8
0
100
AcDbCircle
 62
7
  6
CONTINUOUS
 10
160.283604328
 20
121.3105345193
 40
38.2201109827
100
AcDbArc
 50
271.0549180665
 51
274.3095643909
  0
ARC
  5
32A
100
AcDbEntity
 67
1
  8
0
100
AcDbCircle
 62
7
  6
CONTINUOUS
 10
46.3875879773
 20
148.0015389079
 40
50.0
100
AcDbArc
 50
270.0
 51
360.0
  0
ARC
  5
32B
100
AcDbEntity
 67
1
  8
0
100
AcDbCircle
 62
7
  6
CONTINUOUS
 10
44.9253191254
 20
150.7149627594
 40
40.6882447601
100
AcDbArc
 50
275.1845596612
 51
276.7549404738
  0
ARC
  5
32C
100
AcDbEntity
 67
1
  8
0
100
AcDbCircle
 62
7
  6
CONTINUOUS
 10
44.9892330509
 20
149.9666065654
 40
39.9371749178
100
AcDbArc
 50
272.0065569363
 51
275.1902583258
  0
SPLINE
  5
32D
100
AcDbEntity
 67
1
  8
0
100
AcDbSpline
 62
7
  6
CONTINUOUS
 70
0
 71
3
 72
13
 73
9
 74
0
 42
0.0000001
 43
0.0000001
 44
0.0000000001
 40
0.0
 40
0.0
 40
0.0
 40
0.0
 40
0.2498501011
 40
0.4996280763
 40
0.6247324754
 40
0.7498313387
 40
0.8749216248
 40
1.0
 40
1.0
 40
1.0
 40
1.0
 10
176.1871484924
 20
86.4268294034
 30
0.0
 10
179.0039011181
 20
87.7025862443
 30
0.0
 10
184.3814137392
 20
90.8646174985
 30
0.0
 10
190.0642452323
 20
96.2205020751
 30
0.0
 10
193.7011463513
 20
101.2463857151
 30
0.0
 10
195.8923941015
 20
105.3604548346
 30
0.0
 10
197.4440721017
 20
109.7569995603
 30
0.0
 10
197.98250624
 20
112.8248278484
 30
0.0
 10
198.111347321
 20
114.3674502776
 30
0.0
  0
SPLINE
  5
32E
100
AcDbEntity
 67
1
  8
0
100
AcDbSpline
 62
7
  6
CONTINUOUS
 70
0
 71
3
 72
9
 73
5
 74
0
 42
0.0000001
 43
0.0000001
 44
0.0000000001
 40
0.0
 40
0.0
 40
0.0
 40
0.0
 40
0.4999912394
 40
1.0
 40
1.0
 40
1.0
 40
1.0
 10
163.3042920229
 20
82.8708774859
 30
0.0
 10
165.5249979069
 20
83.1167558643
 30
0.0
 10
169.9326707122
 20
83.9734303705
 30
0.0
 10
174.1518206496
 20
85.5049936003
 30
0.0
 10
176.1871484924
 20
86.4268294034
 30
0.0
  0
SPLINE
  5
32F
100
AcDbEntity
 67
1
  8
DTM_AXIS
100
AcDbSpline
 62
7
  6
CONTINUOUS
 70
0
 71
3
 72
22
 73
18
 74
0
 42
0.0000001
 43
0.0000001
 44
0.0000000001
 40
0.0
 40
0.0
 40
0.0
 40
0.0
 40
0.4320523789
 40
0.6079711457
 40
0.7534198956
 40
0.8140409897
 40
0.8663000689
 40
0.910018885
 40
0.9450522807
 40
0.9592760134
 40
0.9712897302
 40
0.9810857886
 40
0.9886602883
 40
0.9940161293
 40
0.9971768416
 40
0.9983358737
 40
1.0
 40
1.0
 40
1.0
 40
1.0
 10
163.155661677
 20
83.1984869475
 30
0.0
 10
163.3060454772
 20
83.2098030223
 30
0.0
 10
163.5175998174
 20
83.2265423975
 30
0.0
 10
163.7797007235
 20
83.2480628366
 30
0.0
 10
163.9125887771
 20
83.2589601063
 30
0.0
 10
164.0024767984
 20
83.2660927179
 30
0.0
 10
164.0569794067
 20
83.2702519597
 30
0.0
 10
164.1025947547
 20
83.2735025967
 30
0.0
 10
164.1349810116
 20
83.2755631239
 30
0.0
 10
164.156343686
 20
83.2766664482
 30
0.0
 10
164.1689003035
 20
83.2772121315
 30
0.0
 10
164.1791820966
 20
83.2774367085
 30
0.0
 10
164.1870435221
 20
83.2776105017
 30
0.0
 10
164.1928203242
 20
83.2771075708
 30
0.0
 10
164.1959009638
 20
83.2772617142
 30
0.0
 10
164.198330395
 20
83.2757741486
 30
0.0
 10
164.1968014298
 20
83.2751112253
 30
0.0
 10
164.1962723514
 20
83.2748714692
 30
0.0
  0
SPLINE
  5
330
100
AcDbEntity
 67
1
  8
DTM_AXIS
100
AcDbSpline
 62
7
  6
CONTINUOUS
 70
0
 71
3
 72
17
 73
13
 74
0
 42
0.0000001
 43
0.0000001
 44
0.0000000001
 40
0.0
 40
0.0
 40
0.0
 40
0.0
 40
0.0086070395
 40
0.02503769
 40
0.0492732622
 40
0.0812395514
 40
0.1679056199
 40
0.283833372
 40
0.427364936
 40
0.5963804666
 40
0.7882850181
 40
1.0
 40
1.0
 40
1.0
 40
1.0
 10
179.6430190169
 20
90.2709817145
 30
0.0
 10
179.6399181004
 20
90.2695779958
 30
0.0
 10
179.6301450871
 20
90.2674598968
 30
0.0
 10
179.6111220225
 20
90.2635598793
 30
0.0
 10
179.5827434824
 20
90.2588776759
 30
0.0
 10
179.5269279021
 20
90.250235693
 30
0.0
 10
179.4350213396
 20
90.237528453
 30
0.0
 10
179.2992538315
 20
90.2201372196
 30
0.0
 10
179.1309848811
 20
90.2001277848
 30
0.0
 10
178.9327017765
 20
90.1781513803
 30
0.0
 10
178.70742494
 20
90.1549991056
 30
0.0
 10
178.5485122612
 20
90.1399672718
 30
0.0
 10
178.465125949
 20
90.1324195237
 30
0.0
  0
SPLINE
  5
331
100
AcDbEntity
 67
1
  8
DTM_AXIS
100
AcDbSpline
 62
7
  6
CONTINUOUS
 70
0
 71
3
 72
22
 73
18
 74
0
 42
0.0000001
 43
0.0000001
 44
0.0000000001
 40
0.0
 40
0.0
 40
0.0
 40
0.0
 40
0.4320524321
 40
0.6079712126
 40
0.753419966
 40
0.8140410579
 40
0.8663001321
 40
0.9100189405
 40
0.9450523257
 40
0.9592760521
 40
0.971289762
 40
0.9810858127
 40
0.9886603041
 40
0.9940161361
 40
0.9971768391
 40
0.9983358641
 40
1.0
 40
1.0
 40
1.0
 40
1.0
 10
180.3863689672
 20
91.0025851448
 30
0.0
 10
180.5367527877
 20
91.0139012211
 30
0.0
 10
180.7483071537
 20
91.0306405985
 30
0.0
 10
181.0104080875
 20
91.05216104
 30
0.0
 10
181.1432961478
 20
91.0630583102
 30
0.0
 10
181.233184169
 20
91.0701909215
 30
0.0
 10
181.2876867729
 20
91.0743501627
 30
0.0
 10
181.3333021133
 20
91.0776007987
 30
0.0
 10
181.3656883622
 20
91.0796613248
 30
0.0
 10
181.3870510285
 20
91.080764648
 30
0.0
 10
181.3996076393
 20
91.0813103306
 30
0.0
 10
181.4098894234
 20
91.0815349058
 30
0.0
 10
181.4177508431
 20
91.0817087003
 30
0.0
 10
181.4235276297
 20
91.0812057635
 30
0.0
 10
181.4266082716
 20
91.081359914
 30
0.0
 10
181.4290376831
 20
91.0798723334
 30
0.0
 10
181.4275087106
 20
91.0792094176
 30
0.0
 10
181.4269796289
 20
91.0789696608
 30
0.0
  0
SPLINE
  5
332
100
AcDbEntity
 67
1
  8
0
100
AcDbSpline
 62
7
  6
CONTINUOUS
 70
0
 71
3
 72
18
 73
14
 74
0
 42
0.0000001
 43
0.0000001
 44
0.0000000001
 40
0.0
 40
0.0
 40
0.0
 40
0.0
 40
0.0625
 40
0.125
 40
0.25
 40
0.375
 40
0.5
 40
0.625
 40
0.75
 40
0.8125
 40
0.875
 40
0.9375
 40
1.0
 40
1.0
 40
1.0
 40
1.0
 10
49.711193632
 20
110.3091628432
 30
0.0
 10
50.96698213
 20
110.4578706464
 30
0.0
 10
53.3702403067
 20
110.859187777
 30
0.0
 10
57.8307994393
 20
111.9936709522
 30
0.0
 10
62.8633493008
 20
113.9327740878
 30
0.0
 10
68.2077611313
 20
116.926017764
 30
0.0
 10
72.9240379102
 20
120.5217808333
 30
0.0
 10
77.020807887
 20
124.7117869103
 30
0.0
 10
79.879941908
 20
128.7356729115
 30
0.0
 10
81.7672587276
 20
132.338460303
 30
0.0
 10
82.9506379473
 20
135.2631937464
 30
0.0
 10
83.8541978516
 20
138.4563353348
 30
0.0
 10
84.2174029969
 20
140.8145111233
 30
0.0
 10
84.313727009
 20
142.0753998762
 30
0.0
  0
ENDSEC
  0
SECTION
  2
OBJECTS
  0
DICTIONARY
  5
C
100
AcDbDictionary
280
0
281
1
  3
ACAD_GROUP
350
D
  3
ACAD_MLINESTYLE
350
17
  3
ACAD_LAYOUT
350
1A
  3
ACAD_PLOTSETTINGS
350
19
  3
ACAD_PLOTSTYLENAME
350
E
  3
ACAD_TABLESTYLE
350
       333
  0
DICTIONARY
  5
D
102
{ACAD_REACTORS
330
C
102
}
100
AcDbDictionary
280
0
281
1
  0
ACDBDICTIONARYWDFLT
  5
E
102
{ACAD_REACTORS
330
C
102
}
100
AcDbDictionary
281
1
  3
Normal
350
F
100
AcDbDictionaryWithDefault
340
F
  0
DICTIONARY
  5
17
102
{ACAD_REACTORS
330
C
102
}
100
AcDbDictionary
280
0
281
1
  3
Standard
350
18
  0
DICTIONARY
  5
333
330
C
100
AcDbDictionary
281
1
  3
Standard
350
       336
  3
Standard1
350
       337
  0
DICTIONARY
  5
19
102
{ACAD_REACTORS
330
C
102
}
100
AcDbDictionary
281
1
  0
DICTIONARY
  5
1A
102
{ACAD_REACTORS
330
C
102
}
100
AcDbDictionary
281
1
  3
Model
350
334
  3
C362-PROD-MM_1
350
335
  0
ACDBPLACEHOLDER
  5
F
102
{ACAD_REACTORS
330
E
102
}
  0
MLINESTYLE
  5
18
102
{ACAD_REACTORS
330
17
102
}
100
AcDbMlineStyle
  2
STANDARD
 70
0
  3

 62
256
 51
90.0
 52
90.0
 71
2
 49
0.5
 62
256
  6
BYLAYER
 49
-0.5
 62
256
  6
BYLAYER
  0
LAYOUT
  5
334
102
{ACAD_REACTORS
330
1A
102
}
100
AcDbPlotSettings
  1

  2
none_device
  4

  6

 40
0.0
 41
0.0
 42
0.0
 43
0.0
 44
297.0
 45
210.0
 46
0.0
 47
0.0
 48
0.0
 49
0.0
140
0.0
141
0.0
142
1.0
143
1.0
 70
1024
 72
1
 73
0
 74
0
  7

 75
0
147
1.0
148
0.0
149
0.0
100
AcDbLayout
  1
Model
 70
0
 71
0
 10
0.0
 20
0.0
 11
297.0
 21
210.0
 12
0.0
 22
0.0
 32
0.0
 14
0.0
 24
0.0
 34
0.0
 15
0.0
 25
0.0
 35
0.0
146
0.0
 13
0.0
 23
0.0
 33
0.0
 16
1.0
 26
0.0
 36
0.0
 17
0.0
 27
1.0
 37
0.0
 76
0
330
214
345
0
346
0
  0
LAYOUT
  5
335
102
{ACAD_REACTORS
330
1A
102
}
100
AcDbPlotSettings
  1

  2
none_device
  4
ISO_A4_(297.00_x_210.00_MM)
  6

 40
0.0
 41
0.0
 42
0.0
 43
0.0
 44
297.0
 45
210.0
 46
0.0
 47
0.0
 48
0.0
 49
0.0
140
0.0
141
0.0
142
1.0
143
1.0
 70
0
 72
1
 73
0
 74
0
  7

 75
0
147
1.0
148
0.0
149
0.0
100
AcDbLayout
  1
C362-PROD-MM_1
 70
0
 71
1
 10
0.0
 20
0.0
 11
297.0
 21
210.0
 12
0.0
 22
0.0
 32
0.0
 14
0.0
 24
0.0
 34
0.0
 15
0.0
 25
0.0
 35
0.0
146
0.0
 13
0.0
 23
0.0
 33
0.0
 16
1.0
 26
0.0
 36
0.0
 17
0.0
 27
1.0
 37
0.0
 76
0
330
215
331
298
345
0
346
0
  0
TABLESTYLE
  5
336
102
{ACAD_REACTORS
330
333
330
2A0
102
}
330
333
100
AcDbTableStyle
  3
Standard
 70
0
 71
0
 40
0.06
 41
0.06
280
1
281
1
  7
Standard
140
0.18
170
1
 62
0
 63
7
283
0
  7
Standard
140
0.18
170
1
 62
0
 63
7
283
0
  7
Standard
140
0.18
170
1
 62
0
 63
7
283
0
  0
TABLESTYLE
  5
337
102
{ACAD_REACTORS
330
333
102
}
330
333
100
AcDbTableStyle
  3
Standard1
 70
1
 71
0
 40
0.06
 41
0.06
280
1
281
1
  7
Standard
140
0.18
170
1
 62
0
 63
7
283
0
  7
Standard
140
0.18
170
1
 62
0
 63
7
283
0
  7
Standard
140
0.18
170
1
 62
0
 63
7
283
0
  0
ENDSEC
  0
EOF
