999
DXF file: P:\ORAC_PRODUCTEN\ORAC_LIJN6\C-Type\C321\c321-prod-mm.dxf
999
Pro/ENGINEER 2021404 by Parametric Technology Corporation
  0
SECTION
  2
HEADER
  9
$ACADVER
  1
AC1024
  9
$DWGCODEPAGE
  3
ANSI_1252
  9
$EXTMAX
 10
297.0
 20
210.0
 30
0.0
  9
$EXTMIN
 10
0.0
 20
0.0
 30
0.0
  9
$LIMMIN
 10
0.0
 20
0.0
  9
$LIMMAX
 10
297.0
 20
210.0
  9
$VIEWCTR
 10
148.5
 20
105.0
  9
$VIEWSIZE
 40
210.0
  9
$CLAYER
  8
0
  9
$LTSCALE
 40
16.335
  9
$CELTYPE
  6
BYLAYER
  9
$DIMSCALE
 40
1.0
  9
$DIMASZ
 40
3.5
  9
$DIMEXO
 40
1.0
  9
$DIMDLI
 40
11.286
  9
$DIMEXE
 40
1.5
  9
$DIMCEN
 40
2.673
  9
$DIMLFAC
 40
1.0
  9
$DIMBLK
  1
_FILLED
  9
$DIMALT
 70
0
  9
$DIMALTF
 40
0.0393700787
  9
$DIMTXT
 40
2.5
  9
$DIMTOL
 70
1
  9
$DIMLIM
 70
0
  9
$DIMTFAC
 40
1.0
  9
$DIMTP
 40
0.001
  9
$DIMTM
 40
0.001
  9
$DIMGAP
 40
0.625
  9
$DIMDSEP
 70
44
  9
$AUNITS
 70
0
  9
$PDMODE
 70
3
  9
$PDSIZE
 40
8.0
  9
$HANDSEED
  5
2E7
  9
$TILEMODE
 70
0
  9
$MEASUREMENT
 70
1
  9
$INSUNITS
 70
4
  0
ENDSEC
  0
SECTION
  2
CLASSES
  0
CLASS
  1
ACDBDICTIONARYWDFLT
  2
AcDbDictionaryWithDefault
  3
AutoCAD 2000
 90
0
 91
1
280
0
281
0
  0
CLASS
  1
ACDBPLACEHOLDER
  2
AcDbPlaceHolder
  3
AutoCAD 2000
 90
0
 91
1
280
0
281
0
  0
CLASS
  1
LAYOUT
  2
AcDbLayout
  3
AutoCAD 2000
 90
0
 91
0
280
0
281
0
  0
CLASS
  1
TABLESTYLE
  2
AcDbTableStyle
  3
ObjectDBX Classes
 90
2047
 91
1
280
0
281
0
  0
CLASS
  1
ACAD_TABLE
  2
AcDbTable
  3
ObjectDBX Classes
 90
1025
 91
1
280
0
281
1
  0
ENDSEC
  0
SECTION
  2
TABLES
  0
TABLE
  2
VPORT
  5
8
100
AcDbSymbolTable
 70
2
  0
VPORT
  5
1F4
100
AcDbSymbolTableRecord
100
AcDbViewportTableRecord
  2
*ACTIVE
 70
0
 10
0.0
 20
0.0
 11
1.0
 21
1.0
 12
148.5
 22
105.0
 13
0.0
 23
0.0
 14
1.0
 24
1.0
 15
0.0
 25
0.0
 16
0.0
 26
0.0
 36
1.0
 17
0.0
 27
0.0
 37
0.0
 40
210.0
 41
1.4142857143
 42
50.0
 43
0.0
 44
0.0
 50
0.0
 51
0.0
 71
0
 72
100
 73
1
 74
1
 75
0
 76
0
 77
0
 78
0
  0
ENDTAB
  0
TABLE
  2
LTYPE
  5
5
100
AcDbSymbolTable
 70
6
  0
LTYPE
  5
14
100
AcDbSymbolTableRecord
100
AcDbLinetypeTableRecord
  2
BYBLOCK
 70
0
  3

 72
65
 73
0
 40
0.0
  0
LTYPE
  5
15
100
AcDbSymbolTableRecord
100
AcDbLinetypeTableRecord
  2
BYLAYER
 70
0
  3

 72
65
 73
0
 40
0.0
  0
LTYPE
  5
16
100
AcDbSymbolTableRecord
100
AcDbLinetypeTableRecord
  2
CONTINUOUS
 70
64
  3
Solid line
 72
65
 73
0
 40
0.0
  0
LTYPE
  5
1F5
100
AcDbSymbolTableRecord
100
AcDbLinetypeTableRecord
  2
CENTER
 70
64
  3
____ _ ____ _ ____ _ ____ _ ____ _ ____ _ ____
 72
65
 73
4
 40
0.6
 49
0.375
 74
0
 49
-0.075
 74
0
 49
0.075
 74
0
 49
-0.075
 74
0
  0
LTYPE
  5
1F6
100
AcDbSymbolTableRecord
100
AcDbLinetypeTableRecord
  2
HIDDEN
 70
64
  3
- - - - - - - - - - - - - - - - - - - -
 72
65
 73
2
 40
0.2
 49
0.1
 74
0
 49
-0.1
 74
0
  0
LTYPE
  5
1F7
100
AcDbSymbolTableRecord
100
AcDbLinetypeTableRecord
  2
PHANTOM
 70
64
  3
_____ _ _ _____ _ _ _____ _ _ _____
 72
65
 73
6
 40
0.8
 49
0.45
 74
0
 49
-0.05
 74
0
 49
0.1
 74
0
 49
-0.05
 74
0
 49
0.1
 74
0
 49
-0.05
 74
0
  0
LTYPE
  5
1F8
100
AcDbSymbolTableRecord
100
AcDbLinetypeTableRecord
  2
DOT
 70
64
  3
. . . . . . . . . . . . . . . . . . . .
 72
65
 73
2
 40
0.2
 49
0.1
 74
0
 49
-0.1
 74
0
  0
LTYPE
  5
1F9
100
AcDbSymbolTableRecord
100
AcDbLinetypeTableRecord
  2
DASHED
 70
64
  3
- - - - - - - - - - - - - - - - - - - -
 72
65
 73
2
 40
0.2
 49
0.1
 74
0
 49
-0.1
 74
0
  0
ENDTAB
  0
TABLE
  2
LAYER
  5
2
100
AcDbSymbolTable
 70
36
  0
LAYER
  5
10
100
AcDbSymbolTableRecord
100
AcDbLayerTableRecord
  2
0
 70
0
 62
7
  6
CONTINUOUS
370
-3
390
F
  0
LAYER
  5
1FA
100
AcDbSymbolTableRecord
100
AcDbLayerTableRecord
  2
DEFAULT_1
 70
0
 62
7
  6
CENTER
370
-3
390
F
  0
LAYER
  5
1FB
100
AcDbSymbolTableRecord
100
AcDbLayerTableRecord
  2
DEFAULT_2
 70
0
 62
8
  6
HIDDEN
370
-3
390
F
  0
LAYER
  5
1FC
100
AcDbSymbolTableRecord
100
AcDbLayerTableRecord
  2
DEFAULT_3
 70
0
 62
7
  6
PHANTOM
370
-3
390
F
  0
LAYER
  5
1FD
100
AcDbSymbolTableRecord
100
AcDbLayerTableRecord
  2
DTM_ALL
 70
0
 62
7
  6
CONTINUOUS
370
-3
390
F
  0
LAYER
  5
1FE
100
AcDbSymbolTableRecord
100
AcDbLayerTableRecord
  2
DTM_AXIS
 70
0
 62
7
  6
CONTINUOUS
370
-3
390
F
  0
LAYER
  5
1FF
100
AcDbSymbolTableRecord
100
AcDbLayerTableRecord
  2
DTM_CSYS
 70
0
 62
7
  6
CONTINUOUS
370
-3
390
F
  0
LAYER
  5
200
100
AcDbSymbolTableRecord
100
AcDbLayerTableRecord
  2
DTM_CURVE
 70
0
 62
7
  6
CONTINUOUS
370
-3
390
F
  0
LAYER
  5
201
100
AcDbSymbolTableRecord
100
AcDbLayerTableRecord
  2
DTM_MASTER
 70
0
 62
7
  6
CONTINUOUS
370
-3
390
F
  0
LAYER
  5
202
100
AcDbSymbolTableRecord
100
AcDbLayerTableRecord
  2
DTM_POINT
 70
0
 62
7
  6
CONTINUOUS
370
-3
390
F
  0
LAYER
  5
203
100
AcDbSymbolTableRecord
100
AcDbLayerTableRecord
  2
DTM_QUILT
 70
0
 62
7
  6
CONTINUOUS
370
-3
390
F
  0
LAYER
  5
204
100
AcDbSymbolTableRecord
100
AcDbLayerTableRecord
  2
GTOL
 70
0
 62
7
  6
CONTINUOUS
370
-3
390
F
  0
LAYER
  5
205
100
AcDbSymbolTableRecord
100
AcDbLayerTableRecord
  2
NOTES
 70
0
 62
7
  6
CONTINUOUS
370
-3
390
F
  0
ENDTAB
  0
TABLE
  2
STYLE
  5
3
100
AcDbSymbolTable
 70
1
  0
STYLE
  5
11
100
AcDbSymbolTableRecord
100
AcDbTextStyleTableRecord
  2
STANDARD
 70
0
 40
0.0
 41
1.0
 50
0.0
 71
0
 42
0.2
  3
cgtime.ttf
  4

1001
ACAD
1000
CG Times
1071
34
  0
STYLE
  5
206
100
AcDbSymbolTableRecord
100
AcDbTextStyleTableRecord
  2
TEXTSTYLE_1
 70
0
 40
0.0
 41
0.8
 50
0.0
 71
0
 42
0.2
  3
gdt
  4

  0
STYLE
  5
207
100
AcDbSymbolTableRecord
100
AcDbTextStyleTableRecord
  2
TEXTSTYLE_2
 70
0
 40
0.0
 41
1.0
 50
0.0
 71
0
 42
0.2
  3
trium.ttf
  4

1001
ACAD
1000
CG Triumvirate
1071
34
  0
ENDTAB
  0
TABLE
  2
VIEW
  5
6
100
AcDbSymbolTable
 70
0
  0
ENDTAB
  0
TABLE
  2
UCS
  5
7
100
AcDbSymbolTable
 70
0
  0
ENDTAB
  0
TABLE
  2
APPID
  5
9
100
AcDbSymbolTable
 70
1
  0
APPID
  5
208
100
AcDbSymbolTableRecord
100
AcDbRegAppTableRecord
  2
ACAD
 70
0
  0
ENDTAB
  0
TABLE
  2
BLOCK_RECORD
  5
1
100
AcDbSymbolTable
 70
0
  0
BLOCK_RECORD
  5
209
100
AcDbSymbolTableRecord
100
AcDbBlockTableRecord
  2
*Model_Space
  0
BLOCK_RECORD
  5
20A
100
AcDbSymbolTableRecord
100
AcDbBlockTableRecord
  2
*Paper_Space
  0
BLOCK_RECORD
  5
20B
100
AcDbSymbolTableRecord
100
AcDbBlockTableRecord
  2
_FILLED
  0
BLOCK_RECORD
  5
20C
100
AcDbSymbolTableRecord
100
AcDbBlockTableRecord
  2
*D0
  0
BLOCK_RECORD
  5
20D
100
AcDbSymbolTableRecord
100
AcDbBlockTableRecord
  2
*D1
  0
BLOCK_RECORD
  5
20E
100
AcDbSymbolTableRecord
100
AcDbBlockTableRecord
  2
*D2
  0
BLOCK_RECORD
  5
20F
100
AcDbSymbolTableRecord
100
AcDbBlockTableRecord
  2
*D3
  0
BLOCK_RECORD
  5
210
100
AcDbSymbolTableRecord
100
AcDbBlockTableRecord
  2
*D4
  0
BLOCK_RECORD
  5
211
100
AcDbSymbolTableRecord
100
AcDbBlockTableRecord
  2
*D5
  0
BLOCK_RECORD
  5
212
100
AcDbSymbolTableRecord
100
AcDbBlockTableRecord
  2
*T1
  0
ENDTAB
  0
TABLE
  2
DIMSTYLE
  5
A
100
AcDbSymbolTable
 70
1
100
AcDbDimStyleTable
 71
0
  0
DIMSTYLE
105
213
100
AcDbSymbolTableRecord
100
AcDbDimStyleTableRecord
  2
STANDARD
 70
0
  3

  4

 40
1.0
 41
3.5
 42
1.0
 43
0.38
 44
1.5
 45
0.0
 46
0.0
 47
0.001
 48
0.001
140
2.5
141
0.09
142
0.0
143
25.4
144
1.0
145
0.0
146
1.0
147
0.625
 71
1
 72
0
 73
1
 74
1
 75
0
 76
0
 77
0
 78
8
 79
2
170
0
171
2
172
0
173
0
174
0
175
0
176
0
177
0
178
0
270
2
179
3
271
3
272
3
273
2
274
2
275
0
280
0
281
0
282
0
283
1
284
8
285
0
286
0
287
3
288
0
340
11
278
44
341
20B
342
20B
343
20B
344
20B
  0
DIMSTYLE
105
214
100
AcDbSymbolTableRecord
100
AcDbDimStyleTableRecord
  2
DIMSTYLE_1
 70
0
  3

  4

 40
1.0
 41
3.5
 42
1.0
 43
0.38
 44
1.5
 45
0.0
 46
0.0
 47
0.0
 48
0.0
140
2.5
141
0.09
142
0.0
143
25.4
144
1.0
145
0.0
146
1.0
147
1.25
 71
0
 72
0
 73
1
 74
1
 75
0
 76
0
 77
0
 78
8
 79
2
170
0
171
2
172
0
173
0
174
0
175
0
176
0
177
0
178
0
270
2
179
3
271
0
272
0
273
2
274
2
275
0
280
0
281
0
282
0
283
1
284
8
285
0
286
0
287
3
288
0
340
11
278
44
341
20B
342
20B
343
20B
344
20B
  0
DIMSTYLE
105
215
100
AcDbSymbolTableRecord
100
AcDbDimStyleTableRecord
  2
DIMSTYLE_2
 70
0
  3

  4

 40
1.0
 41
3.5
 42
1.0
 43
0.38
 44
1.5
 45
0.0
 46
0.0
 47
0.0
 48
0.0
140
2.5
141
0.09
142
0.0
143
25.4
144
1.0
145
0.0
146
1.0
147
1.25
 71
0
 72
0
 73
1
 74
1
 75
0
 76
0
 77
0
 78
8
 79
2
170
0
171
2
172
0
173
0
174
0
175
0
176
0
177
0
178
0
270
2
179
3
271
3
272
3
273
2
274
2
275
0
280
0
281
0
282
0
283
1
284
8
285
0
286
0
287
3
288
0
340
11
278
44
341
20B
342
20B
343
20B
344
20B
  0
DIMSTYLE
105
216
100
AcDbSymbolTableRecord
100
AcDbDimStyleTableRecord
  2
DIMSTYLE_3
 70
0
  3

  4

 40
1.0
 41
3.5
 42
1.0
 43
0.38
 44
1.5
 45
0.0
 46
0.0
 47
0.0
 48
0.0
140
2.5
141
0.09
142
0.0
143
25.4
144
1.0
145
0.0
146
1.0
147
1.25
 71
0
 72
0
 73
1
 74
1
 75
0
 76
0
 77
0
 78
8
 79
2
170
0
171
2
172
0
173
0
174
0
175
0
176
0
177
0
178
0
270
2
179
3
271
1
272
1
273
2
274
2
275
0
280
0
281
0
282
0
283
1
284
8
285
0
286
0
287
3
288
0
340
11
278
44
341
20B
342
20B
343
20B
344
20B
  0
ENDTAB
  0
ENDSEC
  0
SECTION
  2
BLOCKS
  0
BLOCK
  5
20
100
AcDbEntity
  8
0
100
AcDbBlockBegin
  2
*Model_Space
 70
0
 10
0.0
 20
0.0
 30
0.0
  3
*Model_Space
  1

  0
ENDBLK
  5
21
100
AcDbEntity
  8
0
100
AcDbBlockEnd
  0
BLOCK
  5
1C
100
AcDbEntity
  8
0
100
AcDbBlockBegin
  2
*Paper_Space
 70
0
 10
0.0
 20
0.0
 30
0.0
  3
*Paper_Space
  1

  0
ENDBLK
  5
1D
100
AcDbEntity
  8
0
100
AcDbBlockEnd
  0
BLOCK
  5
217
100
AcDbEntity
  8
0
100
AcDbBlockBegin
  2
_FILLED
 70
64
 10
0.0
 20
0.0
  3
_FILLED
  1

  0
SOLID
  5
218
100
AcDbEntity
  8
0
  6
BYBLOCK
 62
0
100
AcDbTrace
 10
0.0
 20
0.0
 11
-1.0
 21
0.2142857143
 12
-1.0
 22
-0.2142857143
 13
-1.0
 23
-0.2142857143
  0
ENDBLK
  5
219
100
AcDbEntity
  8
0
  6
BYBLOCK
 62
0
100
AcDbBlockEnd
  0
BLOCK
  5
21A
100
AcDbEntity
  8
0
100
AcDbBlockBegin
 62
2
  6
CONTINUOUS
  2
*D0
 70
65
 10
0.0
 20
0.0
  3
*D0
  1

  0
TEXT
  5
21B
100
AcDbEntity
  8
0
100
AcDbText
 62
2
  6
CONTINUOUS
 10
68.0964552951
 20
172.1504084842
  7
STANDARD
 40
2.5
  1
49
 72
5
 11
71.7345875908
 21
172.1504084842
100
AcDbText
  0
TEXT
  5
21C
100
AcDbEntity
  8
0
100
AcDbText
 62
2
  6
CONTINUOUS
 10
71.7345875908
 20
172.1504084842
  7
STANDARD
 40
2.5
  1
mm
 72
5
 11
77.4057938165
 21
172.1504084842
100
AcDbText
  0
TEXT
  5
21D
100
AcDbEntity
  8
0
100
AcDbText
 62
2
  6
CONTINUOUS
 10
67.9651323379
 20
168.4004084842
  7
STANDARD
 40
2.5
  1
1-7/8"
 72
5
 11
77.5371167737
 21
168.4004084842
100
AcDbText
  0
LINE
  5
21E
100
AcDbEntity
  8
0
100
AcDbLine
 62
2
  6
CONTINUOUS
 10
48.2511245558
 20
138.7976992981
 11
48.2511245558
 21
174.9004084842
  0
LINE
  5
21F
100
AcDbEntity
  8
0
100
AcDbLine
 62
2
  6
CONTINUOUS
 10
97.2511245558
 20
164.8654418968
 11
97.2511245558
 21
174.9004084842
  0
LINE
  5
220
100
AcDbEntity
  8
0
100
AcDbLine
 62
2
  6
CONTINUOUS
 10
48.2511245558
 20
173.4004084842
 11
66.8464552951
 21
173.4004084842
  0
LINE
  5
221
100
AcDbEntity
  8
0
100
AcDbLine
 62
2
  6
CONTINUOUS
 10
97.2511245558
 20
173.4004084842
 11
78.6557938165
 21
173.4004084842
  0
INSERT
  5
222
100
AcDbEntity
  8
0
100
AcDbBlockReference
 62
2
  6
CONTINUOUS
  2
_FILLED
 10
48.2511245558
 20
173.4004084842
 41
3.5
 42
3.5
 43
3.5
 50
180.0
  0
INSERT
  5
223
100
AcDbEntity
  8
0
100
AcDbBlockReference
 62
2
  6
CONTINUOUS
  2
_FILLED
 10
97.2511245558
 20
173.4004084842
 41
3.5
 42
3.5
 43
3.5
  0
ENDBLK
  5
224
100
AcDbEntity
  8
0
  6
BYBLOCK
 62
0
100
AcDbBlockEnd
  0
BLOCK
  5
225
100
AcDbEntity
  8
0
100
AcDbBlockBegin
 62
2
  6
CONTINUOUS
  2
*D1
 70
65
 10
0.0
 20
0.0
  3
*D1
  1

  0
TEXT
  5
226
100
AcDbEntity
  8
0
100
AcDbText
 62
2
  6
CONTINUOUS
 10
31.5953556221
 20
113.6154418968
  7
STANDARD
 40
2.5
  1
98
 72
5
 11
35.2334879178
 21
113.6154418968
100
AcDbText
  0
TEXT
  5
227
100
AcDbEntity
  8
0
100
AcDbText
 62
2
  6
CONTINUOUS
 10
35.2334879178
 20
113.6154418968
  7
STANDARD
 40
2.5
  1
mm
 72
5
 11
40.9046941435
 21
113.6154418968
100
AcDbText
  0
TEXT
  5
228
100
AcDbEntity
  8
0
100
AcDbText
 62
2
  6
CONTINUOUS
 10
31.4640326649
 20
109.8654418968
  7
STANDARD
 40
2.5
  1
3-7/8"
 72
5
 11
41.0360171007
 21
109.8654418968
100
AcDbText
  0
LINE
  5
229
100
AcDbEntity
  8
0
100
AcDbLine
 62
2
  6
CONTINUOUS
 10
47.2511245558
 20
65.8654418968
 11
34.7500248828
 21
65.8654418968
  0
LINE
  5
22A
100
AcDbEntity
  8
0
100
AcDbLine
 62
2
  6
CONTINUOUS
 10
76.2511245558
 20
163.8654418968
 11
34.7500248828
 21
163.8654418968
  0
LINE
  5
22B
100
AcDbEntity
  8
0
100
AcDbLine
 62
2
  6
CONTINUOUS
 10
36.2500248828
 20
65.8654418968
 11
36.2500248828
 21
108.6154418968
  0
LINE
  5
22C
100
AcDbEntity
  8
0
100
AcDbLine
 62
2
  6
CONTINUOUS
 10
36.2500248828
 20
163.8654418968
 11
36.2500248828
 21
117.3654418968
  0
INSERT
  5
22D
100
AcDbEntity
  8
0
100
AcDbBlockReference
 62
2
  6
CONTINUOUS
  2
_FILLED
 10
36.2500248828
 20
65.8654418968
 41
3.5
 42
3.5
 43
3.5
 50
270.0
  0
INSERT
  5
22E
100
AcDbEntity
  8
0
100
AcDbBlockReference
 62
2
  6
CONTINUOUS
  2
_FILLED
 10
36.2500248828
 20
163.8654418968
 41
3.5
 42
3.5
 43
3.5
 50
90.0
  0
ENDBLK
  5
22F
100
AcDbEntity
  8
0
  6
BYBLOCK
 62
0
100
AcDbBlockEnd
  0
BLOCK
  5
230
100
AcDbEntity
  8
0
100
AcDbBlockBegin
 62
2
  6
CONTINUOUS
  2
*D2
 70
65
 10
0.0
 20
0.0
  3
*D2
  1

  0
TEXT
  5
231
100
AcDbEntity
  8
0
100
AcDbText
 62
2
  6
CONTINUOUS
 10
85.6517611133
 20
104.3830224507
  7
STANDARD
 40
2.5
  1
108
 72
5
 11
91.1089595569
 21
104.3830224507
100
AcDbText
  0
TEXT
  5
232
100
AcDbEntity
  8
0
100
AcDbText
 62
2
  6
CONTINUOUS
 10
91.1089595569
 20
104.3830224507
  7
STANDARD
 40
2.5
  1
mm
 72
5
 11
96.7801657826
 21
104.3830224507
100
AcDbText
  0
TEXT
  5
233
100
AcDbEntity
  8
0
100
AcDbText
 62
2
  6
CONTINUOUS
 10
86.4299712301
 20
100.6330224507
  7
STANDARD
 40
2.5
  1
4-1/4"
 72
5
 11
96.0019556659
 21
100.6330224507
100
AcDbText
  0
LINE
  5
234
100
AcDbEntity
  8
0
100
AcDbLine
 62
2
  6
CONTINUOUS
 10
49.1455517468
 20
65.4182283013
 11
68.0576042345
 21
55.9622020574
  0
LINE
  5
235
100
AcDbEntity
  8
0
100
AcDbLine
 62
2
  6
CONTINUOUS
 10
98.1455517468
 20
163.4182283013
 11
117.0576042345
 21
153.9622020574
  0
LINE
  5
236
100
AcDbEntity
  8
0
100
AcDbLine
 62
2
  6
CONTINUOUS
 10
66.715963448
 20
56.6330224507
 11
88.090963448
 21
99.3830224507
  0
LINE
  5
237
100
AcDbEntity
  8
0
100
AcDbLine
 62
2
  6
CONTINUOUS
 10
115.715963448
 20
154.6330224507
 11
92.465963448
 21
108.1330224507
  0
INSERT
  5
238
100
AcDbEntity
  8
0
100
AcDbBlockReference
 62
2
  6
CONTINUOUS
  2
_FILLED
 10
66.715963448
 20
56.6330224507
 41
3.5
 42
3.5
 43
3.5
 50
243.4349488229
  0
INSERT
  5
239
100
AcDbEntity
  8
0
100
AcDbBlockReference
 62
2
  6
CONTINUOUS
  2
_FILLED
 10
115.715963448
 20
154.6330224507
 41
3.5
 42
3.5
 43
3.5
 50
63.4349488229
  0
ENDBLK
  5
23A
100
AcDbEntity
  8
0
  6
BYBLOCK
 62
0
100
AcDbBlockEnd
  0
BLOCK
  5
23B
100
AcDbEntity
  8
0
100
AcDbBlockBegin
 62
2
  6
CONTINUOUS
  2
*D3
 70
65
 10
0.0
 20
0.0
  3
*D3
  1

  0
TEXT
  5
23C
100
AcDbEntity
  8
0
100
AcDbText
 62
2
  6
CONTINUOUS
 10
127.5734722492
 20
172.4782684231
  7
STANDARD
 40
2.5
  1
6
 72
5
 11
129.3925383971
 21
172.4782684231
100
AcDbText
  0
TEXT
  5
23D
100
AcDbEntity
  8
0
100
AcDbText
 62
2
  6
CONTINUOUS
 10
129.3925383971
 20
172.4782684231
  7
STANDARD
 40
2.5
  1
mm
 72
5
 11
135.0637446228
 21
172.4782684231
100
AcDbText
  0
TEXT
  5
23E
100
AcDbEntity
  8
0
100
AcDbText
 62
2
  6
CONTINUOUS
 10
127.5734722492
 20
168.7282684231
  7
STANDARD
 40
2.5
  1
1/4"
 72
5
 11
134.1104372298
 21
168.7282684231
100
AcDbText
  0
LINE
  5
23F
100
AcDbEntity
  8
0
100
AcDbLine
 62
2
  6
CONTINUOUS
 10
98.2511245558
 20
157.8654418968
 11
123.0734722492
 21
157.8654418968
  0
LINE
  5
240
100
AcDbEntity
  8
0
100
AcDbLine
 62
2
  6
CONTINUOUS
 10
98.2511245558
 20
163.8654418968
 11
123.0734722492
 21
163.8654418968
  0
LINE
  5
241
100
AcDbEntity
  8
0
100
AcDbLine
 62
2
  6
CONTINUOUS
 10
121.5734722492
 20
157.8654418968
 11
121.5734722492
 21
152.8654418968
  0
LINE
  5
242
100
AcDbEntity
  8
0
100
AcDbLine
 62
2
  6
CONTINUOUS
 10
121.5734722492
 20
163.8654418968
 11
121.5734722492
 21
173.7282684231
  0
LINE
  5
243
100
AcDbEntity
  8
0
100
AcDbLine
 62
2
  6
CONTINUOUS
 10
121.5734722492
 20
173.7282684231
 11
126.3234722492
 21
173.7282684231
  0
INSERT
  5
244
100
AcDbEntity
  8
0
100
AcDbBlockReference
 62
2
  6
CONTINUOUS
  2
_FILLED
 10
121.5734722492
 20
157.8654418968
 41
3.5
 42
3.5
 43
3.5
 50
90.0
  0
INSERT
  5
245
100
AcDbEntity
  8
0
100
AcDbBlockReference
 62
2
  6
CONTINUOUS
  2
_FILLED
 10
121.5734722492
 20
163.8654418968
 41
3.5
 42
3.5
 43
3.5
 50
270.0
  0
ENDBLK
  5
246
100
AcDbEntity
  8
0
  6
BYBLOCK
 62
0
100
AcDbBlockEnd
  0
BLOCK
  5
247
100
AcDbEntity
  8
0
100
AcDbBlockBegin
 62
2
  6
CONTINUOUS
  2
*D4
 70
65
 10
0.0
 20
0.0
  3
*D4
  1

  0
TEXT
  5
248
100
AcDbEntity
  8
0
100
AcDbText
 62
2
  6
CONTINUOUS
 10
33.8826751101
 20
54.099231628
  7
STANDARD
 40
2.5
  1
7
 72
5
 11
35.7017412579
 21
54.099231628
100
AcDbText
  0
TEXT
  5
249
100
AcDbEntity
  8
0
100
AcDbText
 62
2
  6
CONTINUOUS
 10
35.7017412579
 20
54.099231628
  7
STANDARD
 40
2.5
  1
mm
 72
5
 11
41.3729474836
 21
54.099231628
100
AcDbText
  0
TEXT
  5
24A
100
AcDbEntity
  8
0
100
AcDbText
 62
2
  6
CONTINUOUS
 10
34.8359825031
 20
50.349231628
  7
STANDARD
 40
2.5
  1
1/4"
 72
5
 11
41.3729474836
 21
50.349231628
100
AcDbText
  0
LINE
  5
24B
100
AcDbEntity
  8
0
100
AcDbLine
 62
2
  6
CONTINUOUS
 10
48.2511245558
 20
64.8654418968
 11
48.2511245558
 21
53.849231628
  0
LINE
  5
24C
100
AcDbEntity
  8
0
100
AcDbLine
 62
2
  6
CONTINUOUS
 10
55.2511245558
 20
64.8654418968
 11
55.2511245558
 21
53.849231628
  0
LINE
  5
24D
100
AcDbEntity
  8
0
100
AcDbLine
 62
2
  6
CONTINUOUS
 10
48.2511245558
 20
55.349231628
 11
42.6229474836
 21
55.349231628
  0
LINE
  5
24E
100
AcDbEntity
  8
0
100
AcDbLine
 62
2
  6
CONTINUOUS
 10
55.2511245558
 20
55.349231628
 11
60.2511245558
 21
55.349231628
  0
INSERT
  5
24F
100
AcDbEntity
  8
0
100
AcDbBlockReference
 62
2
  6
CONTINUOUS
  2
_FILLED
 10
48.2511245558
 20
55.349231628
 41
3.5
 42
3.5
 43
3.5
  0
INSERT
  5
250
100
AcDbEntity
  8
0
100
AcDbBlockReference
 62
2
  6
CONTINUOUS
  2
_FILLED
 10
55.2511245558
 20
55.349231628
 41
3.5
 42
3.5
 43
3.5
 50
180.0
  0
ENDBLK
  5
251
100
AcDbEntity
  8
0
  6
BYBLOCK
 62
0
100
AcDbBlockEnd
  0
BLOCK
  5
252
100
AcDbEntity
  8
0
100
AcDbBlockBegin
 62
2
  6
CONTINUOUS
  2
*D5
 70
65
 10
0.0
 20
0.0
  3
*D5
  1

  0
TEXT
  5
253
100
AcDbEntity
  8
0
100
AcDbText
 62
2
  6
CONTINUOUS
 10
53.0964552951
 20
39.2242389803
  7
STANDARD
 40
2.5
  1
19
 72
5
 11
56.7345875908
 21
39.2242389803
100
AcDbText
  0
TEXT
  5
254
100
AcDbEntity
  8
0
100
AcDbText
 62
2
  6
CONTINUOUS
 10
56.7345875908
 20
39.2242389803
  7
STANDARD
 40
2.5
  1
mm
 72
5
 11
62.4057938165
 21
39.2242389803
100
AcDbText
  0
TEXT
  5
255
100
AcDbEntity
  8
0
100
AcDbText
 62
2
  6
CONTINUOUS
 10
54.4826420656
 20
35.4742389803
  7
STANDARD
 40
2.5
  1
3/4"
 72
5
 11
61.0196070461
 21
35.4742389803
100
AcDbText
  0
LINE
  5
256
100
AcDbEntity
  8
0
100
AcDbLine
 62
2
  6
CONTINUOUS
 10
67.2511245558
 20
71.8654418968
 11
67.2511245558
 21
38.9742389803
  0
LINE
  5
257
100
AcDbEntity
  8
0
100
AcDbLine
 62
2
  6
CONTINUOUS
 10
48.2511245558
 20
64.8654418968
 11
48.2511245558
 21
38.9742389803
  0
LINE
  5
258
100
AcDbEntity
  8
0
100
AcDbLine
 62
2
  6
CONTINUOUS
 10
67.2511245558
 20
40.4742389803
 11
63.6557938165
 21
40.4742389803
  0
LINE
  5
259
100
AcDbEntity
  8
0
100
AcDbLine
 62
2
  6
CONTINUOUS
 10
48.2511245558
 20
40.4742389803
 11
51.8464552951
 21
40.4742389803
  0
INSERT
  5
25A
100
AcDbEntity
  8
0
100
AcDbBlockReference
 62
2
  6
CONTINUOUS
  2
_FILLED
 10
67.2511245558
 20
40.4742389803
 41
3.5
 42
3.5
 43
3.5
  0
INSERT
  5
25B
100
AcDbEntity
  8
0
100
AcDbBlockReference
 62
2
  6
CONTINUOUS
  2
_FILLED
 10
48.2511245558
 20
40.4742389803
 41
3.5
 42
3.5
 43
3.5
 50
180.0
  0
ENDBLK
  5
25C
100
AcDbEntity
  8
0
  6
BYBLOCK
 62
0
100
AcDbBlockEnd
  0
BLOCK
  5
25D
100
AcDbEntity
  8
0
100
AcDbBlockBegin
  2
*T1
 70
1
 10
0.0
 20
0.0
  3
*T1
  1

  0
LINE
  5
25E
100
AcDbEntity
  8
0
100
AcDbLine
 62
7
  6
CONTINUOUS
 10
0.0
 20
0.0
 11
148.0
 21
0.0
  0
LINE
  5
25F
100
AcDbEntity
  8
0
100
AcDbLine
 62
7
  6
CONTINUOUS
 10
0.0
 20
0.0
 11
0.0
 21
-43.0
  0
LINE
  5
260
100
AcDbEntity
  8
0
100
AcDbLine
 62
7
  6
CONTINUOUS
 10
45.0
 20
-20.0
 11
148.0
 21
-20.0
  0
LINE
  5
261
100
AcDbEntity
  8
0
100
AcDbLine
 62
7
  6
CONTINUOUS
 10
45.0
 20
-28.0
 11
148.0
 21
-28.0
  0
LINE
  5
262
100
AcDbEntity
  8
0
100
AcDbLine
 62
7
  6
CONTINUOUS
 10
0.0
 20
-43.0
 11
148.0
 21
-43.0
  0
LINE
  5
263
100
AcDbEntity
  8
0
100
AcDbLine
 62
7
  6
CONTINUOUS
 10
45.0
 20
0.0
 11
45.0
 21
-43.0
  0
LINE
  5
264
100
AcDbEntity
  8
0
100
AcDbLine
 62
7
  6
CONTINUOUS
 10
143.0
 20
0.0
 11
143.0
 21
-20.0
  0
LINE
  5
265
100
AcDbEntity
  8
0
100
AcDbLine
 62
7
  6
CONTINUOUS
 10
148.0
 20
0.0
 11
148.0
 21
-43.0
  0
TEXT
  5
266
100
AcDbEntity
  8
0
100
AcDbText
 62
7
  6
CONTINUOUS
 10
8.9659749243
 20
-9.175
  7
STANDARD
 40
8.0
  1
O
 72
5
 11
17.370644185
 21
-9.175
100
AcDbText
  0
TEXT
  5
267
100
AcDbEntity
  8
0
100
AcDbText
 62
7
  6
CONTINUOUS
 10
17.370644185
 20
-9.175
  7
STANDARD
 40
5.5
  1
RAC
 72
5
 11
33.9562472979
 21
-9.175
100
AcDbText
  0
TEXT
  5
268
100
AcDbEntity
  8
0
100
AcDbText
 62
7
  6
CONTINUOUS
 10
33.9562472979
 20
-4.425
  7
TEXTSTYLE_2
 40
3.0
  1
®
 72
5
 11
36.0340250757
 21
-4.425
100
AcDbText
  0
TEXT
  5
269
100
AcDbEntity
  8
0
100
AcDbText
 62
7
  6
CONTINUOUS
 10
9.5323389537
 20
-13.825
  7
TEXTSTYLE_2
 40
3.0
  1
D  E  C  O  R
 72
5
 11
34.3878945093
 21
-13.825
100
AcDbText
  0
TEXT
  5
26A
100
AcDbEntity
  8
0
100
AcDbText
 62
7
  6
CONTINUOUS
 10
34.3878945093
 20
-13.825
  7
STANDARD
 40
2.5
  1
 
 72
5
 11
35.4676610463
 21
-13.825
100
AcDbText
  0
TEXT
  5
26B
100
AcDbEntity
  8
0
100
AcDbText
 62
7
  6
CONTINUOUS
 10
54.424270428
 20
-4.6
  7
STANDARD
 40
2.7
  1
Part name:
 72
5
 11
71.9375
 21
-4.6
100
AcDbText
  0
TEXT
  5
26C
100
AcDbEntity
  8
0
100
AcDbText
 62
7
  6
CONTINUOUS
 10
50.6211575875
 20
-11.35
  7
STANDARD
 40
2.7
  1
Designed by:
 72
5
 11
71.9375
 21
-11.35
100
AcDbText
  0
TEXT
  5
26D
100
AcDbEntity
  8
0
100
AcDbText
 62
7
  6
CONTINUOUS
 10
50.6211575875
 20
-18.1
  7
STANDARD
 40
2.7
  1
Designed on:
 72
5
 11
71.9375
 21
-18.1
100
AcDbText
  0
TEXT
  5
26E
100
AcDbEntity
  8
0
100
AcDbText
 62
2
  6
CONTINUOUS
 10
74.0625
 20
-4.6
  7
STANDARD
 40
2.7
  1
C321
 72
5
 11
82.6457684825
 21
-4.6
100
AcDbText
  0
TEXT
  5
26F
100
AcDbEntity
  8
0
100
AcDbText
 62
2
  6
CONTINUOUS
 10
74.0625
 20
-11.35
  7
STANDARD
 40
2.7
  1
ORAC
 72
5
 11
85.0410992218
 21
-11.35
100
AcDbText
  0
TEXT
  5
270
100
AcDbEntity
  8
0
100
AcDbText
 62
2
  6
CONTINUOUS
 10
74.0625
 20
-18.1
  7
STANDARD
 40
2.7
  1
29-Jul-1982
 72
5
 11
93.0570525292
 21
-18.1
100
AcDbText
  0
TEXT
  5
271
100
AcDbEntity
  8
0
100
AcDbText
 62
2
  6
CONTINUOUS
 10
93.0570525292
 20
-18.1
  7
STANDARD
 40
2.7
  1
 
 72
5
 11
94.2232003891
 21
-18.1
100
AcDbText
  0
TEXT
  5
272
100
AcDbEntity
  8
0
100
AcDbText
 62
2
  6
CONTINUOUS
 10
146.5625
 20
-15.9620622568
  7
STANDARD
 40
1.5
  1
Version: 
 50
90.0
 72
5
 11
146.5625
 21
-7.5982490272
100
AcDbText
  0
TEXT
  5
273
100
AcDbEntity
  8
0
100
AcDbText
 62
2
  6
CONTINUOUS
 10
146.5625
 20
-7.5982490272
  7
STANDARD
 40
1.5
  1
1.0
 50
90.0
 72
5
 11
146.5625
 21
-4.6857976654
100
AcDbText
  0
TEXT
  5
274
100
AcDbEntity
  8
0
100
AcDbText
 62
2
  6
CONTINUOUS
 10
146.5625
 20
-4.6857976654
  7
STANDARD
 40
1.5
  1
 
 50
90.0
 72
5
 11
146.5625
 21
-4.0379377432
100
AcDbText
  0
TEXT
  5
275
100
AcDbEntity
  8
0
100
AcDbText
 62
7
  6
CONTINUOUS
 10
10.5836575875
 20
-22.75
  7
STANDARD
 40
2.5
  1
Biekorfstraat 32
 72
5
 11
34.4163424125
 21
-22.75
100
AcDbText
  0
TEXT
  5
276
100
AcDbEntity
  8
0
100
AcDbText
 62
7
  6
CONTINUOUS
 10
3.560311284
 20
-26.5
  7
STANDARD
 40
2.5
  1
8400 Oostende - Belgium
 72
5
 11
41.439688716
 21
-26.5
100
AcDbText
  0
TEXT
  5
277
100
AcDbEntity
  8
0
100
AcDbText
 62
7
  6
CONTINUOUS
 10
3.9688715953
 20
-30.25
  7
STANDARD
 40
2.5
  1
Tel  +32 (0)59 80 32 52
 72
5
 11
41.0311284047
 21
-30.25
100
AcDbText
  0
TEXT
  5
278
100
AcDbEntity
  8
0
100
AcDbText
 62
7
  6
CONTINUOUS
 10
6.9017509728
 20
-34.0
  7
STANDARD
 40
2.5
  1
www.oracdecor.com
 72
5
 11
38.0982490272
 21
-34.0
100
AcDbText
  0
TEXT
  5
279
100
AcDbEntity
  8
0
100
AcDbText
 62
7
  6
CONTINUOUS
 10
6.9017509728
 20
-37.75
  7
STANDARD
 40
2.5
  1
info@oracdecor.com
 72
5
 11
38.0982490272
 21
-37.75
100
AcDbText
  0
TEXT
  5
27A
100
AcDbEntity
  8
0
100
AcDbText
 62
7
  6
CONTINUOUS
 10
46.0625
 20
-23.375
  7
STANDARD
 40
2.5
  1
Unless otherwise specified: all dimensions are in millimeters 
 72
5
 11
137.5605544747
 21
-23.375
100
AcDbText
  0
TEXT
  5
27B
100
AcDbEntity
  8
0
100
AcDbText
 62
7
  6
CONTINUOUS
 10
46.0625
 20
-27.125
  7
STANDARD
 40
2.5
  1
and inches, scale 1:1, length 2 meters
 72
5
 11
102.3660019455
 21
-27.125
100
AcDbText
  0
TEXT
  5
27C
100
AcDbEntity
  8
0
100
AcDbText
 62
7
  6
CONTINUOUS
 10
46.0625
 20
-31.81
  7
STANDARD
 40
1.8
  1
All information in this document is Orac's exclusive property.  It may in no case 
 72
5
 11
133.5901264591
 21
-31.81
100
AcDbText
  0
TEXT
  5
27D
100
AcDbEntity
  8
0
100
AcDbText
 62
7
  6
CONTINUOUS
 10
46.0625
 20
-34.87
  7
STANDARD
 40
1.8
  1
be reproduced, even partly, be communicated to a third party or used for any 
 72
5
 11
129.8990758755
 21
-34.87
100
AcDbText
  0
TEXT
  5
27E
100
AcDbEntity
  8
0
100
AcDbText
 62
7
  6
CONTINUOUS
 10
46.0625
 20
-37.93
  7
STANDARD
 40
1.8
  1
possible purpose without ORAC's express written permission. Further legal 
 72
5
 11
128.2321498054
 21
-37.93
100
AcDbText
  0
TEXT
  5
27F
100
AcDbEntity
  8
0
100
AcDbText
 62
7
  6
CONTINUOUS
 10
46.0625
 20
-40.99
  7
STANDARD
 40
1.8
  1
information can be found at https://www.oracdecor.com/en/general-sales-conditions
 72
5
 11
136.4547178988
 21
-40.99
100
AcDbText
  0
ENDBLK
  5
280
100
AcDbEntity
  8
0
  6
BYBLOCK
 62
0
100
AcDbBlockEnd
  0
ENDSEC
  0
SECTION
  2
ENTITIES
  0
VIEWPORT
  5
281
100
AcDbEntity
 67
1
  8
0
100
AcDbViewport
 10
148.5
 20
105.0
 30
0.0
 40
297.0
 41
210.0
 68
1
 69
1
 12
148.5
 22
105.0
 13
0.0
 23
0.0
 14
10.0
 24
10.0
 15
10.0
 25
10.0
 16
0.0
 26
0.0
 36
1.0
 17
0.0
 27
0.0
 37
0.0
 42
50.0
 43
0.0
 44
0.0
 45
210.0
 50
0.0
 51
0.0
 72
100
 90
32864
  1

281
0
 71
1
 74
0
110
0.0
120
0.0
130
0.0
111
1.0
121
0.0
131
0.0
112
0.0
122
1.0
132
0.0
 79
0
146
0.0
  0
DIMENSION
  5
282
100
AcDbEntity
 67
1
  8
0
100
AcDbDimension
 62
2
  6
CONTINUOUS
  2
*D0
 10
97.2511245558
 20
173.4004084842
 11
72.7511245558
 21
171.5254084842
 70
160
 71
2
 72
2
 41
0.9
 42
49.0
  1
<>mm\P1-7/8"
  3
DIMSTYLE_1
100
AcDbAlignedDimension
 13
48.2511245558
 23
137.7976992981
 14
97.2511245558
 24
163.8654418968
100
AcDbRotatedDimension
  0
DIMENSION
  5
283
100
AcDbEntity
 67
1
  8
0
100
AcDbDimension
 62
2
  6
CONTINUOUS
  2
*D1
 10
36.2500248828
 20
163.8654418968
 11
36.2500248828
 21
112.9904418968
 70
160
 71
2
 72
2
 41
0.9
 42
98.0
  1
<>mm\P3-7/8"
  3
DIMSTYLE_1
100
AcDbAlignedDimension
 13
48.2511245558
 23
65.8654418968
 14
77.2511245558
 24
163.8654418968
 50
90.0
100
AcDbRotatedDimension
  0
DIMENSION
  5
284
100
AcDbEntity
 67
1
  8
0
100
AcDbDimension
 62
2
  6
CONTINUOUS
  2
*D2
 10
115.715963448
 20
154.6330224507
 11
91.215963448
 21
103.7580224507
 70
160
 71
2
 72
2
 41
0.9
 42
109.5673308975
  1
<>mm\P4-1/4"
  3
DIMSTYLE_2
100
AcDbAlignedDimension
 13
48.2511245558
 23
65.8654418968
 14
97.2511245558
 24
163.8654418968
 50
63.4349488229
100
AcDbRotatedDimension
  0
DIMENSION
  5
285
100
AcDbEntity
 67
1
  8
0
100
AcDbDimension
 62
2
  6
CONTINUOUS
  2
*D3
 10
121.5734722492
 20
163.8654418968
 11
131.318608436
 21
171.8532684231
 70
160
 71
1
 72
2
 41
0.9
 42
6.0
  1
<>mm\P1/4"
  3
DIMSTYLE_1
100
AcDbAlignedDimension
 13
97.2511245558
 23
157.8654418968
 14
97.2511245558
 24
163.8654418968
 50
90.0
100
AcDbRotatedDimension
  0
DIMENSION
  5
286
100
AcDbEntity
 67
1
  8
0
100
AcDbDimension
 62
2
  6
CONTINUOUS
  2
*D4
 10
55.2511245558
 20
55.349231628
 11
37.6278112968
 21
53.474231628
 70
160
 71
3
 72
2
 41
0.9
 42
7.0
  1
<>mm\P1/4"
  3
DIMSTYLE_3
100
AcDbAlignedDimension
 13
48.2511245558
 23
65.8654418968
 14
55.2511245558
 24
65.8654418968
100
AcDbRotatedDimension
  0
DIMENSION
  5
287
100
AcDbEntity
 67
1
  8
0
100
AcDbDimension
 62
2
  6
CONTINUOUS
  2
*D5
 10
48.2511245558
 20
40.4742389803
 11
57.7511245558
 21
38.5992389803
 70
160
 71
2
 72
2
 41
0.9
 42
19.0
  1
<>mm\P3/4"
  3
DIMSTYLE_1
100
AcDbAlignedDimension
 13
67.2511245558
 23
72.8654418968
 14
48.2511245558
 24
65.8654418968
 50
180.0
100
AcDbRotatedDimension
  0
ACAD_TABLE
  5
288
100
AcDbEntity
 67
1
  8
0
 62
2
  6
CONTINUOUS
100
AcDbBlockReference
  2
*T1
 10
144.0
 20
48.0
 30
0.0
100
AcDbTable
342
       2E5
343
212
 11
1.0
 21
0.0
 31
0.0
 90
22
 91
4
 92
4
 93
0
 94
0
 95
0
 96
0
141
15.0
141
5.0
141
8.0
141
15.0
142
45.0
142
28.0
142
70.0
142
5.0
171
1
172
0
173
0
174
0
175
1
176
1
 91
41
178
0
145
0.0
301
CELL_VALUE
 90
4
  1
\A1;O\H5.5;RAC\fCG Triumvirate;\H3.0;\S®^ ;\PD  E  C  O  R\fCG Times;\H2.5; 
304
ACVALUE_END
170
5
140
8.0
 64
7
171
1
172
0
173
0
174
0
175
1
176
2
 91
41
178
0
145
0.0
301
CELL_VALUE
 90
4
  1
Part name:\PDesigned by:\PDesigned on:
304
ACVALUE_END
170
6
140
2.7
 64
7
171
1
172
0
173
0
174
0
175
1
176
2
 91
33
178
0
145
0.0
301
CELL_VALUE
 90
4
  1
C321\PORAC\P29-Jul-1982 
304
ACVALUE_END
170
4
140
2.7
171
1
172
0
173
0
174
0
175
1
176
2
 91
33
178
0
145
1.5707963268
301
CELL_VALUE
 90
4
  1
Version: 1.0 
304
ACVALUE_END
170
6
140
1.5
171
1
172
0
173
0
174
0
175
1
176
3
 91
41
178
0
145
0.0
301
CELL_VALUE
 90
4
  1
Biekorfstraat 32\P8400 Oostende - Belgium\PTel  +32 (0)59 80 32 52\Pwww.oracdecor.com\Pinfo@oracdecor.com
304
ACVALUE_END
170
5
140
2.5
 64
7
171
1
172
0
173
1
174
0
175
1
176
1
 91
1
178
0
145
0.0
170
1
171
1
172
0
173
1
174
0
175
1
176
1
 91
1
178
0
145
0.0
170
1
171
1
172
0
173
1
174
0
175
1
176
1
 91
1
178
0
145
0.0
170
1
171
1
172
0
173
1
174
0
175
1
176
1
 91
1
178
0
145
0.0
170
1
171
1
172
0
173
0
174
0
175
3
176
1
 91
41
178
0
145
0.0
301
CELL_VALUE
 90
4
  1
Unless otherwise specified: all dimensions are in millimeters \Pand inches, scale 1:1, length 2 meters
304
ACVALUE_END
170
4
140
2.5
 64
7
171
1
172
0
173
1
174
0
175
1
176
1
 91
1
178
0
145
0.0
170
1
171
1
172
0
173
1
174
0
175
1
176
1
 91
1
178
0
145
0.0
170
1
171
1
172
0
173
1
174
0
175
1
176
1
 91
1
178
0
145
0.0
170
1
171
1
172
0
173
0
174
0
175
3
176
1
 91
41
178
0
145
0.0
301
CELL_VALUE
 90
4
  2
All information in this document is Orac's exclusive property.  It may in no case \Pbe reproduced, even partly, be communicated to a third party or used for any \Ppossible purpose without ORAC's express written permission. Further legal \Pinformation
  1
 can be found at https://www.oracdecor.com/en/general-sales-conditions
304
ACVALUE_END
170
4
140
1.8
 64
7
171
1
172
0
173
1
174
0
175
1
176
1
 91
1
178
0
145
0.0
170
1
171
1
172
0
173
1
174
0
175
1
176
1
 91
1
178
0
145
0.0
170
1
  0
LINE
  5
289
100
AcDbEntity
 67
1
  8
0
100
AcDbLine
 62
5
  6
CONTINUOUS
 10
0.0
 20
0.0
 11
0.0
 21
210.0
  0
LINE
  5
28A
100
AcDbEntity
 67
1
  8
0
100
AcDbLine
 62
7
  6
CONTINUOUS
 10
5.0
 20
5.0
 11
5.0
 21
195.0
  0
LINE
  5
28B
100
AcDbEntity
 67
1
  8
0
100
AcDbLine
 62
5
  6
CONTINUOUS
 10
0.0
 20
0.0
 11
297.0
 21
0.0
  0
LINE
  5
28C
100
AcDbEntity
 67
1
  8
0
100
AcDbLine
 62
7
  6
CONTINUOUS
 10
5.0
 20
5.0
 11
292.0
 21
5.0
  0
LINE
  5
28D
100
AcDbEntity
 67
1
  8
0
100
AcDbLine
 62
4
  6
CONTINUOUS
 10
148.5
 20
195.0
 11
148.5
 21
205.0
  0
LINE
  5
28E
100
AcDbEntity
 67
1
  8
0
100
AcDbLine
 62
7
  6
CONTINUOUS
 10
5.0
 20
195.0
 11
292.0
 21
195.0
  0
LINE
  5
28F
100
AcDbEntity
 67
1
  8
0
100
AcDbLine
 62
5
  6
CONTINUOUS
 10
0.0
 20
210.0
 11
297.0
 21
210.0
  0
LINE
  5
290
100
AcDbEntity
 67
1
  8
0
100
AcDbLine
 62
7
  6
CONTINUOUS
 10
292.0
 20
5.0
 11
292.0
 21
195.0
  0
LINE
  5
291
100
AcDbEntity
 67
1
  8
0
100
AcDbLine
 62
5
  6
CONTINUOUS
 10
297.0
 20
0.0
 11
297.0
 21
210.0
  0
LINE
  5
292
100
AcDbEntity
 67
1
  8
0
100
AcDbLine
 62
7
  6
CONTINUOUS
 10
194.2614995861
 20
189.2139818331
 11
165.3637607646
 21
161.3188328708
  0
LINE
  5
293
100
AcDbEntity
 67
1
  8
0
100
AcDbLine
 62
7
  6
CONTINUOUS
 10
230.0999540417
 20
52.7759364887
 11
237.0962766925
 21
52.8021954273
  0
LINE
  5
294
100
AcDbEntity
 67
1
  8
0
100
AcDbLine
 62
7
  6
CONTINUOUS
 10
165.583610182
 20
91.1239005566
 11
165.5577109916
 21
99.3931602133
  0
LINE
  5
295
100
AcDbEntity
 67
1
  8
0
100
AcDbLine
 62
7
  6
CONTINUOUS
 10
165.5468816452
 20
102.8508233988
 11
165.5209824548
 21
111.1200830556
  0
LINE
  5
296
100
AcDbEntity
 67
1
  8
0
100
AcDbLine
 62
7
  6
CONTINUOUS
 10
165.4111604394
 20
146.1847606519
 11
165.3940308171
 21
151.6540163488
  0
LINE
  5
297
100
AcDbEntity
 67
1
  8
0
100
AcDbLine
 62
7
  6
CONTINUOUS
 10
165.3832014707
 20
155.1116795343
 11
165.3637607646
 21
161.3188328708
  0
LINE
  5
298
100
AcDbEntity
 67
1
  8
0
100
AcDbLine
 62
7
  6
CONTINUOUS
 10
230.0999540417
 20
52.7759364887
 11
165.583610182
 21
91.1239005566
  0
LINE
  5
299
100
AcDbEntity
 67
1
  8
0
100
AcDbLine
 62
7
  6
CONTINUOUS
 10
170.4158347085
 20
143.8724237783
 11
170.502698845
 21
116.1378850651
  0
LINE
  5
29A
100
AcDbEntity
 67
1
  8
0
100
AcDbLine
 62
7
  6
CONTINUOUS
 10
237.0962766925
 20
52.8021954273
 11
172.5799328328
 21
91.1501594952
  0
LINE
  5
29B
100
AcDbEntity
 67
1
  8
0
100
AcDbLine
 62
7
  6
CONTINUOUS
 10
179.4682226541
 20
125.6698332446
 11
179.3492299724
 21
163.6625799927
  0
LINE
  5
29C
100
AcDbEntity
 67
1
  8
0
100
AcDbLine
 62
7
  6
CONTINUOUS
 10
166.3351415082
 20
102.382288465
 11
165.5468816452
 21
102.8508233988
  0
LINE
  5
29D
100
AcDbEntity
 67
1
  8
0
100
AcDbLine
 62
7
  6
CONTINUOUS
 10
184.551709101
 20
98.1938386932
 11
184.5329207828
 21
104.1926934429
  0
LINE
  5
29E
100
AcDbEntity
 67
1
  8
0
100
AcDbLine
 62
7
  6
CONTINUOUS
 10
184.5016069192
 20
114.1907846924
 11
184.4859499874
 21
119.1898303172
  0
LINE
  5
29F
100
AcDbEntity
 67
1
  8
0
100
AcDbLine
 62
7
  6
CONTINUOUS
 10
249.0680529607
 20
59.8458746253
 11
184.551709101
 21
98.1938386932
  0
LINE
  5
2A0
100
AcDbEntity
 67
1
  8
0
100
AcDbLine
 62
7
  6
CONTINUOUS
 10
188.3420363047
 20
164.4835891623
 11
188.3263793728
 21
169.4826347871
  0
LINE
  5
2A1
100
AcDbEntity
 67
1
  8
0
100
AcDbLine
 62
7
  6
CONTINUOUS
 10
170.502698845
 20
116.1378850651
 11
165.5209824548
 21
111.1200830556
  0
LINE
  5
2A2
100
AcDbEntity
 67
1
  8
0
100
AcDbLine
 62
7
  6
CONTINUOUS
 10
165.583610182
 20
91.1239005566
 11
172.5799328328
 21
91.1501594952
  0
LINE
  5
2A3
100
AcDbEntity
 67
1
  8
0
100
AcDbLine
 62
7
  6
CONTINUOUS
 10
249.0492646425
 20
65.844729375
 11
184.5329207828
 21
104.1926934429
  0
LINE
  5
2A4
100
AcDbEntity
 67
1
  8
DTM_AXIS
100
AcDbLine
 62
7
  6
CONTINUOUS
 10
251.5883396214
 20
75.1418379198
 11
187.0719957617
 21
113.4898019877
  0
LINE
  5
2A5
100
AcDbEntity
 67
1
  8
0
100
AcDbLine
 62
7
  6
CONTINUOUS
 10
249.0022938471
 20
80.8418662493
 11
184.4859499874
 21
119.1898303172
  0
LINE
  5
2A6
100
AcDbEntity
 67
1
  8
0
100
AcDbLine
 62
7
  6
CONTINUOUS
 10
243.9845665138
 20
87.3218691767
 11
179.4682226541
 21
125.6698332446
  0
LINE
  5
2A7
100
AcDbEntity
 67
1
  8
0
100
AcDbLine
 62
7
  6
CONTINUOUS
 10
214.2697811921
 20
183.2901526224
 11
214.2509928739
 21
189.2890073721
  0
LINE
  5
2A8
100
AcDbEntity
 67
1
  8
0
100
AcDbLine
 62
7
  6
CONTINUOUS
 10
165.4111604394
 20
146.1847606519
 11
170.4179132004
 21
143.2087895492
  0
LINE
  5
2A9
100
AcDbEntity
 67
1
  8
0
100
AcDbLine
 62
7
  6
CONTINUOUS
 10
170.4158347085
 20
143.8724237783
 11
165.4111604394
 21
146.1847606519
  0
LINE
  5
2AA
100
AcDbEntity
 67
1
  8
0
100
AcDbLine
 62
7
  6
CONTINUOUS
 10
165.3832014707
 20
155.1116795343
 11
166.1714613336
 21
154.6431446004
  0
LINE
  5
2AB
100
AcDbEntity
 67
1
  8
0
100
AcDbLine
 62
7
  6
CONTINUOUS
 10
243.8655738321
 20
125.3146159249
 11
252.8583801644
 21
126.1356250945
  0
LINE
  5
2AC
100
AcDbEntity
 67
1
  8
0
100
AcDbLine
 62
7
  6
CONTINUOUS
 10
243.8655738321
 20
125.3146159249
 11
179.3492299724
 21
163.6625799927
  0
LINE
  5
2AD
100
AcDbEntity
 67
1
  8
0
100
AcDbLine
 62
7
  6
CONTINUOUS
 10
243.9845665138
 20
87.3218691767
 11
243.8655738321
 21
125.3146159249
  0
LINE
  5
2AE
100
AcDbEntity
 67
1
  8
0
100
AcDbLine
 62
7
  6
CONTINUOUS
 10
252.8583801644
 20
126.1356250945
 11
188.3420363047
 21
164.4835891623
  0
LINE
  5
2AF
100
AcDbEntity
 67
1
  8
0
100
AcDbLine
 62
7
  6
CONTINUOUS
 10
252.8427232326
 20
131.1346707192
 11
188.3263793728
 21
169.4826347871
  0
LINE
  5
2B0
100
AcDbEntity
 67
1
  8
0
100
AcDbLine
 62
7
  6
CONTINUOUS
 10
249.0680529607
 20
59.8458746253
 11
249.0492646425
 21
65.844729375
  0
LINE
  5
2B1
100
AcDbEntity
 67
1
  8
0
100
AcDbLine
 62
7
  6
CONTINUOUS
 10
249.0153563165
 20
76.6711972328
 11
249.0022938471
 21
80.8418662493
  0
LINE
  5
2B2
100
AcDbEntity
 67
1
  8
0
100
AcDbLine
 62
7
  6
CONTINUOUS
 10
252.8583801644
 20
126.1356250945
 11
252.8427232326
 21
131.1346707192
  0
LINE
  5
2B3
100
AcDbEntity
 67
1
  8
0
100
AcDbLine
 62
7
  6
CONTINUOUS
 10
179.3492299724
 20
163.6625799927
 11
188.3420363047
 21
164.4835891623
  0
LINE
  5
2B4
100
AcDbEntity
 67
1
  8
0
100
AcDbLine
 62
7
  6
CONTINUOUS
 10
278.7861250518
 20
144.9421885545
 11
214.2697811921
 21
183.2901526224
  0
LINE
  5
2B5
100
AcDbEntity
 67
1
  8
0
100
AcDbLine
 62
7
  6
CONTINUOUS
 10
278.7861250518
 20
144.9421885545
 11
278.7673367336
 21
150.9410433042
  0
LINE
  5
2B6
100
AcDbEntity
 67
1
  8
0
100
AcDbLine
 62
7
  6
CONTINUOUS
 10
278.7673367336
 20
150.9410433042
 11
214.2509928739
 21
189.2890073721
  0
LINE
  5
2B7
100
AcDbEntity
 67
1
  8
0
100
AcDbLine
 62
7
  6
CONTINUOUS
 10
200.952775807
 20
189.2390958567
 11
206.8845734132
 21
188.0009194999
  0
LINE
  5
2B8
100
AcDbEntity
 67
1
  8
0
100
AcDbLine
 62
7
  6
CONTINUOUS
 10
194.2614995861
 20
189.2139818331
 11
200.952775807
 21
189.2390958567
  0
LINE
  5
2B9
100
AcDbEntity
 67
1
  8
0
100
AcDbLine
 62
7
  6
CONTINUOUS
 10
208.9829234796
 20
189.2692349977
 11
214.2509928739
 21
189.2890073721
  0
LINE
  5
2BA
100
AcDbEntity
 67
1
  8
0
100
AcDbLine
 62
7
  6
CONTINUOUS
 10
48.2511245558
 20
65.8654418968
 11
55.2511245558
 21
65.8654418968
  0
LINE
  5
2BB
100
AcDbEntity
 67
1
  8
0
100
AcDbLine
 62
7
  6
CONTINUOUS
 10
77.2511245558
 20
163.8654418968
 11
48.2511245558
 21
136.0737752301
  0
LINE
  5
2BC
100
AcDbEntity
 67
1
  8
0
100
AcDbLine
 62
7
  6
CONTINUOUS
 10
48.2511245558
 20
65.8654418968
 11
48.2511245558
 21
74.1362802502
  0
LINE
  5
2BD
100
AcDbEntity
 67
1
  8
0
100
AcDbLine
 62
7
  6
CONTINUOUS
 10
48.2511245558
 20
77.5946035433
 11
48.2511245558
 21
85.8654418968
  0
LINE
  5
2BE
100
AcDbEntity
 67
1
  8
0
100
AcDbLine
 62
7
  6
CONTINUOUS
 10
48.2511245558
 20
120.9368137429
 11
48.2511245558
 21
126.4071135835
  0
LINE
  5
2BF
100
AcDbEntity
 67
1
  8
0
100
AcDbLine
 62
7
  6
CONTINUOUS
 10
48.2511245558
 20
129.8654368767
 11
48.2511245558
 21
136.0737752301
  0
LINE
  5
2C0
100
AcDbEntity
 67
1
  8
0
100
AcDbLine
 62
7
  6
CONTINUOUS
 10
53.2511245558
 20
118.6052754521
 11
53.2511245558
 21
90.8654418968
  0
LINE
  5
2C1
100
AcDbEntity
 67
1
  8
0
100
AcDbLine
 62
7
  6
CONTINUOUS
 10
62.2511245558
 20
100.3654418968
 11
62.2511245558
 21
138.3654418968
  0
LINE
  5
2C2
100
AcDbEntity
 67
1
  8
0
100
AcDbLine
 62
7
  6
CONTINUOUS
 10
67.2511245558
 20
72.8654418968
 11
67.2511245558
 21
78.8654418968
  0
LINE
  5
2C3
100
AcDbEntity
 67
1
  8
0
100
AcDbLine
 62
7
  6
CONTINUOUS
 10
67.2511245558
 20
88.8654418968
 11
67.2511245558
 21
93.8654418968
  0
LINE
  5
2C4
100
AcDbEntity
 67
1
  8
0
100
AcDbLine
 62
7
  6
CONTINUOUS
 10
53.2511245558
 20
118.6052754521
 11
48.2511245558
 21
120.9368137429
  0
LINE
  5
2C5
100
AcDbEntity
 67
1
  8
0
100
AcDbLine
 62
7
  6
CONTINUOUS
 10
71.2511245558
 20
139.1528398685
 11
71.2511245558
 21
144.1528398685
  0
LINE
  5
2C6
100
AcDbEntity
 67
1
  8
0
100
AcDbLine
 62
7
  6
CONTINUOUS
 10
53.2511245558
 20
90.8654418968
 11
48.2511245558
 21
85.8654418968
  0
LINE
  5
2C7
100
AcDbEntity
 67
1
  8
0
100
AcDbLine
 62
7
  6
CONTINUOUS
 10
97.2511245558
 20
157.8654418968
 11
97.2511245558
 21
163.8654418968
  0
LINE
  5
2C8
100
AcDbEntity
 67
1
  8
0
100
AcDbLine
 62
7
  6
CONTINUOUS
 10
62.2511245558
 20
138.3654418968
 11
71.2511245558
 21
139.1528398685
  0
LINE
  5
2C9
100
AcDbEntity
 67
1
  8
0
100
AcDbLine
 62
7
  6
CONTINUOUS
 10
77.2511245558
 20
163.8654418968
 11
83.94591779
 21
163.8654418968
  0
LINE
  5
2CA
100
AcDbEntity
 67
1
  8
0
100
AcDbLine
 62
7
  6
CONTINUOUS
 10
91.9802862024
 20
163.8654418968
 11
97.2511245558
 21
163.8654418968
  0
LINE
  5
2CB
100
AcDbEntity
 67
1
  8
0
100
AcDbLine
 62
7
  6
CONTINUOUS
 10
83.94591779
 20
163.8654418968
 11
89.8768835124
 21
162.6047762154
  0
ARC
  5
2CC
100
AcDbEntity
 67
1
  8
0
100
AcDbCircle
 62
7
  6
CONTINUOUS
 10
249.0301787273
 20
70.8456986603
 40
5.0007740705
100
AcDbArc
 50
270.2186650266
 51
59.2290608114
  0
ARC
  5
2CD
100
AcDbEntity
 67
1
  8
0
100
AcDbCircle
 62
7
  6
CONTINUOUS
 10
184.513834867
 20
109.1936627283
 40
5.0007740707
100
AcDbArc
 50
270.2186650334
 51
59.2290608047
  0
ARC
  5
2CE
100
AcDbEntity
 67
1
  8
0
100
AcDbCircle
 62
7
  6
CONTINUOUS
 10
184.5204928303
 20
109.1969501794
 40
4.9938702247
100
AcDbArc
 50
59.2753984958
 51
90.2166827594
  0
ARC
  5
2CF
100
AcDbEntity
 67
1
  8
0
100
AcDbCircle
 62
7
  6
CONTINUOUS
 10
164.8871629504
 20
153.3761797878
 40
1.8049968375
100
AcDbArc
 50
59.3023396255
 51
74.0490659724
  0
ARC
  5
2D0
100
AcDbEntity
 67
1
  8
0
100
AcDbCircle
 62
7
  6
CONTINUOUS
 10
165.050843125
 20
101.1153236524
 40
1.8049968375
100
AcDbArc
 50
59.3023396255
 51
74.0490659724
  0
ARC
  5
2D1
100
AcDbEntity
 67
1
  8
0
100
AcDbCircle
 62
7
  6
CONTINUOUS
 10
207.251772213
 20
189.7632744349
 40
1.8002380498
100
AcDbArc
 50
258.2304173189
 51
344.0722065302
  0
ARC
  5
2D2
100
AcDbEntity
 67
1
  8
0
100
AcDbCircle
 62
7
  6
CONTINUOUS
 10
164.8877570104
 20
153.3816538468
 40
1.8001695219
100
AcDbArc
 50
286.3329062864
 51
59.2296456227
  0
ARC
  5
2D3
100
AcDbEntity
 67
1
  8
0
100
AcDbCircle
 62
7
  6
CONTINUOUS
 10
165.0514371849
 20
101.1207977113
 40
1.8001695219
100
AcDbArc
 50
286.3329062898
 51
59.229645621
  0
ARC
  5
2D4
100
AcDbEntity
 67
1
  8
0
100
AcDbCircle
 62
7
  6
CONTINUOUS
 10
67.2511245558
 20
83.8654418968
 40
5.0
100
AcDbArc
 50
270.0
 51
90.0
  0
ARC
  5
2D5
100
AcDbEntity
 67
1
  8
0
100
AcDbCircle
 62
7
  6
CONTINUOUS
 10
47.7511245558
 20
128.1362752301
 40
1.8
100
AcDbArc
 50
286.1276202132
 51
73.8723797868
  0
ARC
  5
2D6
100
AcDbEntity
 67
1
  8
0
100
AcDbCircle
 62
7
  6
CONTINUOUS
 10
90.2511245558
 20
164.3654418968
 40
1.8
100
AcDbArc
 50
258.0
 51
343.8723797868
  0
ARC
  5
2D7
100
AcDbEntity
 67
1
  8
0
100
AcDbCircle
 62
7
  6
CONTINUOUS
 10
47.7511245558
 20
75.8654418968
 40
1.8
100
AcDbArc
 50
286.1276202132
 51
73.8723797868
  0
SPLINE
  5
2D8
100
AcDbEntity
 67
1
  8
0
100
AcDbSpline
 62
7
  6
CONTINUOUS
 70
0
 71
3
 72
11
 73
7
 74
0
 42
0.0000001
 43
0.0000001
 44
0.0000000001
 40
0.0
 40
0.0
 40
0.0
 40
0.0
 40
0.250005585
 40
0.4999126973
 40
0.7498714883
 40
1.0
 40
1.0
 40
1.0
 40
1.0
 10
246.1332787707
 20
82.546362219
 30
0.0
 10
245.7950962465
 20
82.8431111094
 30
0.0
 10
245.1704569516
 20
83.5004236156
 30
0.0
 10
244.47207669
 20
84.6693085289
 30
0.0
 10
244.0664329574
 20
85.9688919687
 30
0.0
 10
243.9859763397
 20
86.8717309198
 30
0.0
 10
243.9845665138
 20
87.3218691767
 30
0.0
  0
SPLINE
  5
2D9
100
AcDbEntity
 67
1
  8
0
100
AcDbSpline
 62
7
  6
CONTINUOUS
 70
0
 71
3
 72
14
 73
10
 74
0
 42
0.0000001
 43
0.0000001
 44
0.0000000001
 40
0.0
 40
0.0
 40
0.0
 40
0.0
 40
0.1250917305
 40
0.2501613195
 40
0.3752114916
 40
0.5002435991
 40
0.6252680228
 40
0.7502949608
 40
1.0
 40
1.0
 40
1.0
 40
1.0
 10
237.0962766925
 20
52.8021954273
 30
0.0
 10
237.3959951927
 20
53.3309303756
 30
0.0
 10
238.0508476809
 20
54.3583703453
 30
0.0
 10
239.2117186516
 20
55.7703341972
 30
0.0
 10
240.5546308593
 20
57.0120254839
 30
0.0
 10
242.064995695
 20
58.0439532727
 30
0.0
 10
243.711244619
 20
58.8410486232
 30
0.0
 10
246.028997476
 20
59.5852793209
 30
0.0
 10
247.8553689634
 20
59.8095542665
 30
0.0
 10
249.0680529607
 20
59.8458746253
 30
0.0
  0
SPLINE
  5
2DA
100
AcDbEntity
 67
1
  8
0
100
AcDbSpline
 62
7
  6
CONTINUOUS
 70
0
 71
3
 72
8
 73
4
 74
0
 42
0.0000001
 43
0.0000001
 44
0.0000000001
 40
0.0
 40
0.0
 40
0.0
 40
0.0
 40
1.0
 40
1.0
 40
1.0
 40
1.0
 10
184.4859499874
 20
119.1898303172
 30
0.0
 10
183.9403284267
 20
119.4128084119
 30
0.0
 10
183.4064444122
 20
119.6702191484
 30
0.0
 10
182.8997728535
 20
119.9713935991
 30
0.0
  0
SPLINE
  5
2DB
100
AcDbEntity
 67
1
  8
0
100
AcDbSpline
 62
7
  6
CONTINUOUS
 70
0
 71
3
 72
33
 73
29
 74
0
 42
0.0000001
 43
0.0000001
 44
0.0000000001
 40
0.0
 40
0.0
 40
0.0
 40
0.0
 40
0.0413795929
 40
0.0785261303
 40
0.1123761014
 40
0.1438667108
 40
0.1738774194
 40
0.2031652739
 40
0.2323168268
 40
0.2617317121
 40
0.2916360884
 40
0.3220785908
 40
0.3838194833
 40
0.4146538914
 40
0.4453329206
 40
0.4760112809
 40
0.5068300379
 40
0.5688815044
 40
0.599979177
 40
0.6309152495
 40
0.6923876566
 40
0.7538945729
 40
0.7848545825
 40
0.8160307301
 40
0.8474139332
 40
0.8788330967
 40
0.9408385943
 40
1.0
 40
1.0
 40
1.0
 40
1.0
 10
252.8427232326
 20
131.1346707192
 30
0.0
 10
253.2777435954
 20
131.1317824564
 30
0.0
 10
254.1045251014
 20
131.1657617491
 30
0.0
 10
255.274022874
 20
131.353260359
 30
0.0
 10
256.3092405956
 20
131.6643416925
 30
0.0
 10
257.2214527369
 20
132.0884387955
 30
0.0
 10
258.0222033194
 20
132.613850191
 30
0.0
 10
258.7239267745
 20
133.2280742464
 30
0.0
 10
259.340142004
 20
133.9187451874
 30
0.0
 10
259.885142569
 20
134.6740927315
 30
0.0
 10
260.3724078051
 20
135.4832166548
 30
0.0
 10
260.9678588239
 20
136.6205668079
 30
0.0
 10
261.5300681802
 20
137.7857970003
 30
0.0
 10
262.1733818053
 20
138.9116448747
 30
0.0
 10
262.7239526394
 20
139.7114227013
 30
0.0
 10
263.3621206319
 20
140.4433608432
 30
0.0
 10
264.3089907706
 20
141.3348033056
 30
0.0
 10
265.3716747676
 20
142.1000900845
 30
0.0
 10
266.5018419181
 20
142.7524585334
 30
0.0
 10
267.663288879
 20
143.3345543835
 30
0.0
 10
269.1708820921
 20
143.9327325758
 30
0.0
 10
270.7367626933
 20
144.3554704568
 30
0.0
 10
272.0156092348
 20
144.5911727324
 30
0.0
 10
272.9911395889
 20
144.7174292299
 30
0.0
 10
273.97630181
 20
144.7959907064
 30
0.0
 10
275.2872476107
 20
144.8558709867
 30
0.0
 10
276.8912406107
 20
144.8782769338
 30
0.0
 10
278.1651749564
 20
144.9065345626
 30
0.0
 10
278.7861250518
 20
144.9421885545
 30
0.0
  0
SPLINE
  5
2DC
100
AcDbEntity
 67
1
  8
0
100
AcDbSpline
 62
7
  6
CONTINUOUS
 70
0
 71
3
 72
33
 73
29
 74
0
 42
0.0000001
 43
0.0000001
 44
0.0000000001
 40
0.0
 40
0.0
 40
0.0
 40
0.0
 40
0.0413795929
 40
0.0785261303
 40
0.1123761014
 40
0.1438667108
 40
0.1738774194
 40
0.2031652739
 40
0.2323168268
 40
0.2617317121
 40
0.2916360884
 40
0.3220785908
 40
0.3838194833
 40
0.4146538914
 40
0.4453329206
 40
0.4760112809
 40
0.5068300379
 40
0.5688815044
 40
0.599979177
 40
0.6309152495
 40
0.6923876566
 40
0.7538945729
 40
0.7848545825
 40
0.8160307301
 40
0.8474139332
 40
0.8788330967
 40
0.9408385943
 40
1.0
 40
1.0
 40
1.0
 40
1.0
 10
188.3263793728
 20
169.4826347871
 30
0.0
 10
188.7613997357
 20
169.4797465242
 30
0.0
 10
189.5881812417
 20
169.5137258169
 30
0.0
 10
190.7576790143
 20
169.7012244269
 30
0.0
 10
191.7928967359
 20
170.0123057603
 30
0.0
 10
192.7051088772
 20
170.4364028634
 30
0.0
 10
193.5058594597
 20
170.9618142588
 30
0.0
 10
194.2075829148
 20
171.5760383143
 30
0.0
 10
194.8237981443
 20
172.2667092553
 30
0.0
 10
195.3687987093
 20
173.0220567994
 30
0.0
 10
195.8560639454
 20
173.8311807227
 30
0.0
 10
196.4515149642
 20
174.9685308758
 30
0.0
 10
197.0137243205
 20
176.1337610682
 30
0.0
 10
197.6570379456
 20
177.2596089426
 30
0.0
 10
198.2076087797
 20
178.0593867691
 30
0.0
 10
198.8457767722
 20
178.7913249111
 30
0.0
 10
199.7926469109
 20
179.6827673735
 30
0.0
 10
200.8553309079
 20
180.4480541524
 30
0.0
 10
201.9854980584
 20
181.1004226013
 30
0.0
 10
203.1469450193
 20
181.6825184513
 30
0.0
 10
204.6545382324
 20
182.2806966437
 30
0.0
 10
206.2204188336
 20
182.7034345247
 30
0.0
 10
207.4992653751
 20
182.9391368002
 30
0.0
 10
208.4747957292
 20
183.0653932978
 30
0.0
 10
209.4599579503
 20
183.1439547742
 30
0.0
 10
210.770903751
 20
183.2038350545
 30
0.0
 10
212.374896751
 20
183.2262410016
 30
0.0
 10
213.6488310967
 20
183.2544986305
 30
0.0
 10
214.2697811921
 20
183.2901526224
 30
0.0
  0
SPLINE
  5
2DD
100
AcDbEntity
 67
1
  8
0
100
AcDbSpline
 62
7
  6
CONTINUOUS
 70
0
 71
3
 72
14
 73
10
 74
0
 42
0.0000001
 43
0.0000001
 44
0.0000000001
 40
0.0
 40
0.0
 40
0.0
 40
0.0
 40
0.2497661321
 40
0.3747949298
 40
0.4998109604
 40
0.6248264531
 40
0.7498585735
 40
0.8749109801
 40
1.0
 40
1.0
 40
1.0
 40
1.0
 10
182.8997728535
 20
119.9713935991
 30
0.0
 10
182.399921869
 20
120.2685137811
 30
0.0
 10
181.6842833072
 20
120.782238933
 30
0.0
 10
180.8741625952
 20
121.6214167765
 30
0.0
 10
180.3573737252
 20
122.3291252151
 30
0.0
 10
179.9511319943
 20
123.1058271496
 30
0.0
 10
179.6664586904
 20
123.9348557775
 30
0.0
 10
179.5033533304
 20
124.7956334412
 30
0.0
 10
179.4691347612
 20
125.3786098442
 30
0.0
 10
179.4682226541
 20
125.6698332446
 30
0.0
  0
SPLINE
  5
2DE
100
AcDbEntity
 67
1
  8
0
100
AcDbSpline
 62
7
  6
CONTINUOUS
 70
0
 71
3
 72
14
 73
10
 74
0
 42
0.0000001
 43
0.0000001
 44
0.0000000001
 40
0.0
 40
0.0
 40
0.0
 40
0.0
 40
0.1250917305
 40
0.2501613195
 40
0.3752114916
 40
0.5002435991
 40
0.6252680228
 40
0.7502949608
 40
1.0
 40
1.0
 40
1.0
 40
1.0
 10
172.5799328328
 20
91.1501594952
 30
0.0
 10
172.879651333
 20
91.6788944435
 30
0.0
 10
173.5345038212
 20
92.7063344132
 30
0.0
 10
174.6953747919
 20
94.118298265
 30
0.0
 10
176.0382869996
 20
95.3599895517
 30
0.0
 10
177.5486518353
 20
96.3919173406
 30
0.0
 10
179.1949007593
 20
97.189012691
 30
0.0
 10
181.5126536163
 20
97.9332433888
 30
0.0
 10
183.3390251037
 20
98.1575183343
 30
0.0
 10
184.551709101
 20
98.1938386932
 30
0.0
  0
SPLINE
  5
2DF
100
AcDbEntity
 67
1
  8
0
100
AcDbSpline
 62
7
  6
CONTINUOUS
 70
0
 71
3
 72
8
 73
4
 74
0
 42
0.0000001
 43
0.0000001
 44
0.0000000001
 40
0.0
 40
0.0
 40
0.0
 40
0.0
 40
1.0
 40
1.0
 40
1.0
 40
1.0
 10
55.2511245558
 20
65.8654418968
 30
0.0
 10
57.8874553961
 20
70.4792673323
 30
0.0
 10
61.9390368206
 20
72.726339984
 30
0.0
 10
67.2511245558
 20
72.8654418968
 30
0.0
  0
SPLINE
  5
2E0
100
AcDbEntity
 67
1
  8
0
100
AcDbSpline
 62
7
  6
CONTINUOUS
 70
0
 71
3
 72
12
 73
8
 74
0
 42
0.0000001
 43
0.0000001
 44
0.0000000001
 40
0.0
 40
0.0
 40
0.0
 40
0.0
 40
0.2760058697
 40
0.4324518819
 40
0.5991521193
 40
0.8047453364
 40
1.0
 40
1.0
 40
1.0
 40
1.0
 10
71.2511245558
 20
144.1528398685
 30
0.0
 10
75.3217875347
 20
144.1105482771
 30
0.0
 10
78.4289527179
 20
146.9431205553
 30
0.0
 10
80.7606504441
 20
152.9386783154
 30
0.0
 10
85.3519597742
 20
156.2945419523
 30
0.0
 10
91.0038878282
 20
157.9574568956
 30
0.0
 10
95.3786997376
 20
157.7650095179
 30
0.0
 10
97.2511245558
 20
157.8654418968
 30
0.0
  0
SPLINE
  5
2E1
100
AcDbEntity
 67
1
  8
0
100
AcDbSpline
 62
7
  6
CONTINUOUS
 70
0
 71
3
 72
10
 73
6
 74
0
 42
0.0000001
 43
0.0000001
 44
0.0000000001
 40
0.0
 40
0.0
 40
0.0
 40
0.0
 40
0.5
 40
0.75
 40
1.0
 40
1.0
 40
1.0
 40
1.0
 10
67.2511245558
 20
93.8654418968
 30
0.0
 10
65.734407078
 20
94.4915606179
 30
0.0
 10
63.8786160543
 20
95.7112592801
 30
0.0
 10
62.5065028533
 20
98.074995413
 30
0.0
 10
62.2511245558
 20
99.545006561
 30
0.0
 10
62.2511245558
 20
100.3654418968
 30
0.0
  0
ENDSEC
  0
SECTION
  2
OBJECTS
  0
DICTIONARY
  5
C
100
AcDbDictionary
280
0
281
1
  3
ACAD_GROUP
350
D
  3
ACAD_MLINESTYLE
350
17
  3
ACAD_LAYOUT
350
1A
  3
ACAD_PLOTSETTINGS
350
19
  3
ACAD_PLOTSTYLENAME
350
E
  3
ACAD_TABLESTYLE
350
       2E2
  0
DICTIONARY
  5
D
102
{ACAD_REACTORS
330
C
102
}
100
AcDbDictionary
280
0
281
1
  0
ACDBDICTIONARYWDFLT
  5
E
102
{ACAD_REACTORS
330
C
102
}
100
AcDbDictionary
281
1
  3
Normal
350
F
100
AcDbDictionaryWithDefault
340
F
  0
DICTIONARY
  5
17
102
{ACAD_REACTORS
330
C
102
}
100
AcDbDictionary
280
0
281
1
  3
Standard
350
18
  0
DICTIONARY
  5
2E2
330
C
100
AcDbDictionary
281
1
  3
Standard
350
       2E5
  3
Standard1
350
       2E6
  0
DICTIONARY
  5
19
102
{ACAD_REACTORS
330
C
102
}
100
AcDbDictionary
281
1
  0
DICTIONARY
  5
1A
102
{ACAD_REACTORS
330
C
102
}
100
AcDbDictionary
281
1
  3
Model
350
2E3
  3
C321-PROD-MM_1
350
2E4
  0
ACDBPLACEHOLDER
  5
F
102
{ACAD_REACTORS
330
E
102
}
  0
MLINESTYLE
  5
18
102
{ACAD_REACTORS
330
17
102
}
100
AcDbMlineStyle
  2
STANDARD
 70
0
  3

 62
256
 51
90.0
 52
90.0
 71
2
 49
0.5
 62
256
  6
BYLAYER
 49
-0.5
 62
256
  6
BYLAYER
  0
LAYOUT
  5
2E3
102
{ACAD_REACTORS
330
1A
102
}
100
AcDbPlotSettings
  1

  2
none_device
  4

  6

 40
0.0
 41
0.0
 42
0.0
 43
0.0
 44
297.0
 45
210.0
 46
0.0
 47
0.0
 48
0.0
 49
0.0
140
0.0
141
0.0
142
1.0
143
1.0
 70
1024
 72
1
 73
0
 74
0
  7

 75
0
147
1.0
148
0.0
149
0.0
100
AcDbLayout
  1
Model
 70
0
 71
0
 10
0.0
 20
0.0
 11
297.0
 21
210.0
 12
0.0
 22
0.0
 32
0.0
 14
0.0
 24
0.0
 34
0.0
 15
0.0
 25
0.0
 35
0.0
146
0.0
 13
0.0
 23
0.0
 33
0.0
 16
1.0
 26
0.0
 36
0.0
 17
0.0
 27
1.0
 37
0.0
 76
0
330
209
345
0
346
0
  0
LAYOUT
  5
2E4
102
{ACAD_REACTORS
330
1A
102
}
100
AcDbPlotSettings
  1

  2
none_device
  4
ISO_A4_(297.00_x_210.00_MM)
  6

 40
0.0
 41
0.0
 42
0.0
 43
0.0
 44
297.0
 45
210.0
 46
0.0
 47
0.0
 48
0.0
 49
0.0
140
0.0
141
0.0
142
1.0
143
1.0
 70
0
 72
1
 73
0
 74
0
  7

 75
0
147
1.0
148
0.0
149
0.0
100
AcDbLayout
  1
C321-PROD-MM_1
 70
0
 71
1
 10
0.0
 20
0.0
 11
297.0
 21
210.0
 12
0.0
 22
0.0
 32
0.0
 14
0.0
 24
0.0
 34
0.0
 15
0.0
 25
0.0
 35
0.0
146
0.0
 13
0.0
 23
0.0
 33
0.0
 16
1.0
 26
0.0
 36
0.0
 17
0.0
 27
1.0
 37
0.0
 76
0
330
20A
331
281
345
0
346
0
  0
TABLESTYLE
  5
2E5
102
{ACAD_REACTORS
330
2E2
330
288
102
}
330
2E2
100
AcDbTableStyle
  3
Standard
 70
0
 71
0
 40
0.06
 41
0.06
280
1
281
1
  7
Standard
140
0.18
170
1
 62
0
 63
7
283
0
  7
Standard
140
0.18
170
1
 62
0
 63
7
283
0
  7
Standard
140
0.18
170
1
 62
0
 63
7
283
0
  0
TABLESTYLE
  5
2E6
102
{ACAD_REACTORS
330
2E2
102
}
330
2E2
100
AcDbTableStyle
  3
Standard1
 70
1
 71
0
 40
0.06
 41
0.06
280
1
281
1
  7
Standard
140
0.18
170
1
 62
0
 63
7
283
0
  7
Standard
140
0.18
170
1
 62
0
 63
7
283
0
  7
Standard
140
0.18
170
1
 62
0
 63
7
283
0
  0
ENDSEC
  0
EOF
