999
DXF file: P:\ORAC_PRODUCTEN\ORAC_LIJN6\C-Type\C213\c213-prod-mm.dxf
999
Pro/ENGINEER 2021404 by Parametric Technology Corporation
  0
SECTION
  2
HEADER
  9
$ACADVER
  1
AC1024
  9
$DWGCODEPAGE
  3
ANSI_1252
  9
$EXTMAX
 10
297.0
 20
210.0
 30
0.0
  9
$EXTMIN
 10
0.0
 20
0.0
 30
0.0
  9
$LIMMIN
 10
0.0
 20
0.0
  9
$LIMMAX
 10
297.0
 20
210.0
  9
$VIEWCTR
 10
148.5
 20
105.0
  9
$VIEWSIZE
 40
210.0
  9
$CLAYER
  8
0
  9
$LTSCALE
 40
16.335
  9
$CELTYPE
  6
BYLAYER
  9
$DIMSCALE
 40
1.0
  9
$DIMASZ
 40
3.5
  9
$DIMEXO
 40
1.0
  9
$DIMDLI
 40
11.286
  9
$DIMEXE
 40
1.5
  9
$DIMCEN
 40
2.673
  9
$DIMLFAC
 40
1.0
  9
$DIMBLK
  1
_FILLED
  9
$DIMALT
 70
0
  9
$DIMALTF
 40
0.0393700787
  9
$DIMTXT
 40
2.5
  9
$DIMTOL
 70
1
  9
$DIMLIM
 70
0
  9
$DIMTFAC
 40
1.0
  9
$DIMTP
 40
0.001
  9
$DIMTM
 40
0.001
  9
$DIMGAP
 40
0.625
  9
$DIMDSEP
 70
44
  9
$AUNITS
 70
0
  9
$PDMODE
 70
3
  9
$PDSIZE
 40
8.0
  9
$HANDSEED
  5
301
  9
$TILEMODE
 70
0
  9
$MEASUREMENT
 70
1
  9
$INSUNITS
 70
4
  0
ENDSEC
  0
SECTION
  2
CLASSES
  0
CLASS
  1
ACDBDICTIONARYWDFLT
  2
AcDbDictionaryWithDefault
  3
AutoCAD 2000
 90
0
 91
1
280
0
281
0
  0
CLASS
  1
ACDBPLACEHOLDER
  2
AcDbPlaceHolder
  3
AutoCAD 2000
 90
0
 91
1
280
0
281
0
  0
CLASS
  1
LAYOUT
  2
AcDbLayout
  3
AutoCAD 2000
 90
0
 91
0
280
0
281
0
  0
CLASS
  1
TABLESTYLE
  2
AcDbTableStyle
  3
ObjectDBX Classes
 90
2047
 91
1
280
0
281
0
  0
CLASS
  1
ACAD_TABLE
  2
AcDbTable
  3
ObjectDBX Classes
 90
1025
 91
1
280
0
281
1
  0
ENDSEC
  0
SECTION
  2
TABLES
  0
TABLE
  2
VPORT
  5
8
100
AcDbSymbolTable
 70
2
  0
VPORT
  5
1F4
100
AcDbSymbolTableRecord
100
AcDbViewportTableRecord
  2
*ACTIVE
 70
0
 10
0.0
 20
0.0
 11
1.0
 21
1.0
 12
148.5
 22
105.0
 13
0.0
 23
0.0
 14
1.0
 24
1.0
 15
0.0
 25
0.0
 16
0.0
 26
0.0
 36
1.0
 17
0.0
 27
0.0
 37
0.0
 40
210.0
 41
1.4142857143
 42
50.0
 43
0.0
 44
0.0
 50
0.0
 51
0.0
 71
0
 72
100
 73
1
 74
1
 75
0
 76
0
 77
0
 78
0
  0
ENDTAB
  0
TABLE
  2
LTYPE
  5
5
100
AcDbSymbolTable
 70
6
  0
LTYPE
  5
14
100
AcDbSymbolTableRecord
100
AcDbLinetypeTableRecord
  2
BYBLOCK
 70
0
  3

 72
65
 73
0
 40
0.0
  0
LTYPE
  5
15
100
AcDbSymbolTableRecord
100
AcDbLinetypeTableRecord
  2
BYLAYER
 70
0
  3

 72
65
 73
0
 40
0.0
  0
LTYPE
  5
16
100
AcDbSymbolTableRecord
100
AcDbLinetypeTableRecord
  2
CONTINUOUS
 70
64
  3
Solid line
 72
65
 73
0
 40
0.0
  0
LTYPE
  5
1F5
100
AcDbSymbolTableRecord
100
AcDbLinetypeTableRecord
  2
CENTER
 70
64
  3
____ _ ____ _ ____ _ ____ _ ____ _ ____ _ ____
 72
65
 73
4
 40
0.6
 49
0.375
 74
0
 49
-0.075
 74
0
 49
0.075
 74
0
 49
-0.075
 74
0
  0
LTYPE
  5
1F6
100
AcDbSymbolTableRecord
100
AcDbLinetypeTableRecord
  2
HIDDEN
 70
64
  3
- - - - - - - - - - - - - - - - - - - -
 72
65
 73
2
 40
0.2
 49
0.1
 74
0
 49
-0.1
 74
0
  0
LTYPE
  5
1F7
100
AcDbSymbolTableRecord
100
AcDbLinetypeTableRecord
  2
PHANTOM
 70
64
  3
_____ _ _ _____ _ _ _____ _ _ _____
 72
65
 73
6
 40
0.8
 49
0.45
 74
0
 49
-0.05
 74
0
 49
0.1
 74
0
 49
-0.05
 74
0
 49
0.1
 74
0
 49
-0.05
 74
0
  0
LTYPE
  5
1F8
100
AcDbSymbolTableRecord
100
AcDbLinetypeTableRecord
  2
DOT
 70
64
  3
. . . . . . . . . . . . . . . . . . . .
 72
65
 73
2
 40
0.2
 49
0.1
 74
0
 49
-0.1
 74
0
  0
LTYPE
  5
1F9
100
AcDbSymbolTableRecord
100
AcDbLinetypeTableRecord
  2
DASHED
 70
64
  3
- - - - - - - - - - - - - - - - - - - -
 72
65
 73
2
 40
0.2
 49
0.1
 74
0
 49
-0.1
 74
0
  0
ENDTAB
  0
TABLE
  2
LAYER
  5
2
100
AcDbSymbolTable
 70
36
  0
LAYER
  5
10
100
AcDbSymbolTableRecord
100
AcDbLayerTableRecord
  2
0
 70
0
 62
7
  6
CONTINUOUS
370
-3
390
F
  0
LAYER
  5
1FA
100
AcDbSymbolTableRecord
100
AcDbLayerTableRecord
  2
DEFAULT_1
 70
0
 62
7
  6
CENTER
370
-3
390
F
  0
LAYER
  5
1FB
100
AcDbSymbolTableRecord
100
AcDbLayerTableRecord
  2
DEFAULT_2
 70
0
 62
8
  6
HIDDEN
370
-3
390
F
  0
LAYER
  5
1FC
100
AcDbSymbolTableRecord
100
AcDbLayerTableRecord
  2
DEFAULT_3
 70
0
 62
7
  6
PHANTOM
370
-3
390
F
  0
LAYER
  5
1FD
100
AcDbSymbolTableRecord
100
AcDbLayerTableRecord
  2
DTM_ALL
 70
0
 62
7
  6
CONTINUOUS
370
-3
390
F
  0
LAYER
  5
1FE
100
AcDbSymbolTableRecord
100
AcDbLayerTableRecord
  2
DTM_AXIS
 70
0
 62
7
  6
CONTINUOUS
370
-3
390
F
  0
LAYER
  5
1FF
100
AcDbSymbolTableRecord
100
AcDbLayerTableRecord
  2
DTM_CSYS
 70
0
 62
7
  6
CONTINUOUS
370
-3
390
F
  0
LAYER
  5
200
100
AcDbSymbolTableRecord
100
AcDbLayerTableRecord
  2
DTM_CURVE
 70
0
 62
7
  6
CONTINUOUS
370
-3
390
F
  0
LAYER
  5
201
100
AcDbSymbolTableRecord
100
AcDbLayerTableRecord
  2
DTM_MASTER
 70
0
 62
7
  6
CONTINUOUS
370
-3
390
F
  0
LAYER
  5
202
100
AcDbSymbolTableRecord
100
AcDbLayerTableRecord
  2
DTM_POINT
 70
0
 62
7
  6
CONTINUOUS
370
-3
390
F
  0
LAYER
  5
203
100
AcDbSymbolTableRecord
100
AcDbLayerTableRecord
  2
DTM_QUILT
 70
0
 62
7
  6
CONTINUOUS
370
-3
390
F
  0
LAYER
  5
204
100
AcDbSymbolTableRecord
100
AcDbLayerTableRecord
  2
GTOL
 70
0
 62
7
  6
CONTINUOUS
370
-3
390
F
  0
LAYER
  5
205
100
AcDbSymbolTableRecord
100
AcDbLayerTableRecord
  2
NOTES
 70
0
 62
7
  6
CONTINUOUS
370
-3
390
F
  0
ENDTAB
  0
TABLE
  2
STYLE
  5
3
100
AcDbSymbolTable
 70
1
  0
STYLE
  5
11
100
AcDbSymbolTableRecord
100
AcDbTextStyleTableRecord
  2
STANDARD
 70
0
 40
0.0
 41
1.0
 50
0.0
 71
0
 42
0.2
  3
cgtime.ttf
  4

1001
ACAD
1000
CG Times
1071
34
  0
STYLE
  5
206
100
AcDbSymbolTableRecord
100
AcDbTextStyleTableRecord
  2
TEXTSTYLE_1
 70
0
 40
0.0
 41
0.8
 50
0.0
 71
0
 42
0.2
  3
gdt
  4

  0
STYLE
  5
207
100
AcDbSymbolTableRecord
100
AcDbTextStyleTableRecord
  2
TEXTSTYLE_2
 70
0
 40
0.0
 41
1.0
 50
0.0
 71
0
 42
0.2
  3
trium.ttf
  4

1001
ACAD
1000
CG Triumvirate
1071
34
  0
ENDTAB
  0
TABLE
  2
VIEW
  5
6
100
AcDbSymbolTable
 70
0
  0
ENDTAB
  0
TABLE
  2
UCS
  5
7
100
AcDbSymbolTable
 70
0
  0
ENDTAB
  0
TABLE
  2
APPID
  5
9
100
AcDbSymbolTable
 70
1
  0
APPID
  5
208
100
AcDbSymbolTableRecord
100
AcDbRegAppTableRecord
  2
ACAD
 70
0
  0
ENDTAB
  0
TABLE
  2
BLOCK_RECORD
  5
1
100
AcDbSymbolTable
 70
0
  0
BLOCK_RECORD
  5
209
100
AcDbSymbolTableRecord
100
AcDbBlockTableRecord
  2
*Model_Space
  0
BLOCK_RECORD
  5
20A
100
AcDbSymbolTableRecord
100
AcDbBlockTableRecord
  2
*Paper_Space
  0
BLOCK_RECORD
  5
20B
100
AcDbSymbolTableRecord
100
AcDbBlockTableRecord
  2
_FILLED
  0
BLOCK_RECORD
  5
20C
100
AcDbSymbolTableRecord
100
AcDbBlockTableRecord
  2
*D0
  0
BLOCK_RECORD
  5
20D
100
AcDbSymbolTableRecord
100
AcDbBlockTableRecord
  2
*D1
  0
BLOCK_RECORD
  5
20E
100
AcDbSymbolTableRecord
100
AcDbBlockTableRecord
  2
*D2
  0
BLOCK_RECORD
  5
20F
100
AcDbSymbolTableRecord
100
AcDbBlockTableRecord
  2
*D3
  0
BLOCK_RECORD
  5
210
100
AcDbSymbolTableRecord
100
AcDbBlockTableRecord
  2
*D4
  0
BLOCK_RECORD
  5
211
100
AcDbSymbolTableRecord
100
AcDbBlockTableRecord
  2
*D5
  0
BLOCK_RECORD
  5
212
100
AcDbSymbolTableRecord
100
AcDbBlockTableRecord
  2
*D6
  0
BLOCK_RECORD
  5
213
100
AcDbSymbolTableRecord
100
AcDbBlockTableRecord
  2
*D7
  0
BLOCK_RECORD
  5
214
100
AcDbSymbolTableRecord
100
AcDbBlockTableRecord
  2
*T1
  0
ENDTAB
  0
TABLE
  2
DIMSTYLE
  5
A
100
AcDbSymbolTable
 70
1
100
AcDbDimStyleTable
 71
0
  0
DIMSTYLE
105
215
100
AcDbSymbolTableRecord
100
AcDbDimStyleTableRecord
  2
STANDARD
 70
0
  3

  4

 40
1.0
 41
3.5
 42
1.0
 43
0.38
 44
1.5
 45
0.0
 46
0.0
 47
0.001
 48
0.001
140
2.5
141
0.09
142
0.0
143
25.4
144
1.0
145
0.0
146
1.0
147
0.625
 71
1
 72
0
 73
1
 74
1
 75
0
 76
0
 77
0
 78
8
 79
2
170
0
171
2
172
0
173
0
174
0
175
0
176
0
177
0
178
0
270
2
179
3
271
3
272
3
273
2
274
2
275
0
280
0
281
0
282
0
283
1
284
8
285
0
286
0
287
3
288
0
340
11
278
44
341
20B
342
20B
343
20B
344
20B
  0
DIMSTYLE
105
216
100
AcDbSymbolTableRecord
100
AcDbDimStyleTableRecord
  2
DIMSTYLE_1
 70
0
  3

  4

 40
1.0
 41
3.5
 42
1.0
 43
0.38
 44
1.5
 45
0.0
 46
0.0
 47
0.0
 48
0.0
140
2.5
141
0.09
142
0.0
143
25.4
144
1.0
145
0.0
146
1.0
147
1.25
 71
0
 72
0
 73
1
 74
1
 75
0
 76
0
 77
0
 78
8
 79
2
170
0
171
2
172
0
173
0
174
0
175
0
176
0
177
0
178
0
270
2
179
3
271
3
272
3
273
2
274
2
275
0
280
0
281
0
282
0
283
1
284
8
285
0
286
0
287
3
288
0
340
11
278
44
341
20B
342
20B
343
20B
344
20B
  0
DIMSTYLE
105
217
100
AcDbSymbolTableRecord
100
AcDbDimStyleTableRecord
  2
DIMSTYLE_2
 70
0
  3

  4

 40
1.0
 41
3.5
 42
1.0
 43
0.38
 44
1.5
 45
0.0
 46
0.0
 47
0.0
 48
0.0
140
2.5
141
0.09
142
0.0
143
25.4
144
1.0
145
0.0
146
1.0
147
1.25
 71
0
 72
0
 73
1
 74
1
 75
0
 76
0
 77
0
 78
8
 79
2
170
0
171
2
172
0
173
0
174
0
175
0
176
0
177
0
178
0
270
2
179
3
271
0
272
0
273
2
274
2
275
0
280
0
281
0
282
0
283
1
284
8
285
0
286
0
287
3
288
0
340
11
278
44
341
20B
342
20B
343
20B
344
20B
  0
ENDTAB
  0
ENDSEC
  0
SECTION
  2
BLOCKS
  0
BLOCK
  5
20
100
AcDbEntity
  8
0
100
AcDbBlockBegin
  2
*Model_Space
 70
0
 10
0.0
 20
0.0
 30
0.0
  3
*Model_Space
  1

  0
ENDBLK
  5
21
100
AcDbEntity
  8
0
100
AcDbBlockEnd
  0
BLOCK
  5
1C
100
AcDbEntity
  8
0
100
AcDbBlockBegin
  2
*Paper_Space
 70
0
 10
0.0
 20
0.0
 30
0.0
  3
*Paper_Space
  1

  0
ENDBLK
  5
1D
100
AcDbEntity
  8
0
100
AcDbBlockEnd
  0
BLOCK
  5
218
100
AcDbEntity
  8
0
100
AcDbBlockBegin
  2
_FILLED
 70
64
 10
0.0
 20
0.0
  3
_FILLED
  1

  0
SOLID
  5
219
100
AcDbEntity
  8
0
  6
BYBLOCK
 62
0
100
AcDbTrace
 10
0.0
 20
0.0
 11
-1.0
 21
0.2142857143
 12
-1.0
 22
-0.2142857143
 13
-1.0
 23
-0.2142857143
  0
ENDBLK
  5
21A
100
AcDbEntity
  8
0
  6
BYBLOCK
 62
0
100
AcDbBlockEnd
  0
BLOCK
  5
21B
100
AcDbEntity
  8
0
100
AcDbBlockBegin
 62
2
  6
CONTINUOUS
  2
*D0
 70
65
 10
0.0
 20
0.0
  3
*D0
  1

  0
TEXT
  5
21C
100
AcDbEntity
  8
0
100
AcDbText
 62
2
  6
CONTINUOUS
 10
22.9352357351
 20
112.5394191153
  7
STANDARD
 40
2.5
  1
80
 72
5
 11
26.5733680308
 21
112.5394191153
100
AcDbText
  0
TEXT
  5
21D
100
AcDbEntity
  8
0
100
AcDbText
 62
2
  6
CONTINUOUS
 10
26.5733680308
 20
112.5394191153
  7
STANDARD
 40
2.5
  1
mm
 72
5
 11
32.2445742565
 21
112.5394191153
100
AcDbText
  0
TEXT
  5
21E
100
AcDbEntity
  8
0
100
AcDbText
 62
2
  6
CONTINUOUS
 10
22.8039127779
 20
108.7894191153
  7
STANDARD
 40
2.5
  1
3-1/8"
 72
5
 11
32.3758972137
 21
108.7894191153
100
AcDbText
  0
LINE
  5
21F
100
AcDbEntity
  8
0
100
AcDbLine
 62
2
  6
CONTINUOUS
 10
101.7186234483
 20
154.4894191153
 11
26.0899049958
 21
154.4894191153
  0
LINE
  5
220
100
AcDbEntity
  8
0
100
AcDbLine
 62
2
  6
CONTINUOUS
 10
45.9186234483
 20
73.0894191153
 11
26.0899049958
 21
73.0894191153
  0
LINE
  5
221
100
AcDbEntity
  8
0
100
AcDbLine
 62
2
  6
CONTINUOUS
 10
27.5899049958
 20
154.4894191153
 11
27.5899049958
 21
116.2894191153
  0
LINE
  5
222
100
AcDbEntity
  8
0
100
AcDbLine
 62
2
  6
CONTINUOUS
 10
27.5899049958
 20
73.0894191153
 11
27.5899049958
 21
107.5394191153
  0
INSERT
  5
223
100
AcDbEntity
  8
0
100
AcDbBlockReference
 62
2
  6
CONTINUOUS
  2
_FILLED
 10
27.5899049958
 20
154.4894191153
 41
3.5
 42
3.5
 43
3.5
 50
90.0
  0
INSERT
  5
224
100
AcDbEntity
  8
0
100
AcDbBlockReference
 62
2
  6
CONTINUOUS
  2
_FILLED
 10
27.5899049958
 20
73.0894191153
 41
3.5
 42
3.5
 43
3.5
 50
270.0
  0
ENDBLK
  5
225
100
AcDbEntity
  8
0
  6
BYBLOCK
 62
0
100
AcDbBlockEnd
  0
BLOCK
  5
226
100
AcDbEntity
  8
0
100
AcDbBlockBegin
 62
2
  6
CONTINUOUS
  2
*D1
 70
65
 10
0.0
 20
0.0
  3
*D1
  1

  0
TEXT
  5
227
100
AcDbEntity
  8
0
100
AcDbText
 62
2
  6
CONTINUOUS
 10
81.9139541876
 20
171.4008571501
  7
STANDARD
 40
2.5
  1
80
 72
5
 11
85.5520864833
 21
171.4008571501
100
AcDbText
  0
TEXT
  5
228
100
AcDbEntity
  8
0
100
AcDbText
 62
2
  6
CONTINUOUS
 10
85.5520864833
 20
171.4008571501
  7
STANDARD
 40
2.5
  1
mm
 72
5
 11
91.223292709
 21
171.4008571501
100
AcDbText
  0
TEXT
  5
229
100
AcDbEntity
  8
0
100
AcDbText
 62
2
  6
CONTINUOUS
 10
81.7826312304
 20
167.6508571501
  7
STANDARD
 40
2.5
  1
3-1/8"
 72
5
 11
91.3546156662
 21
167.6508571501
100
AcDbText
  0
LINE
  5
22A
100
AcDbEntity
  8
0
100
AcDbLine
 62
2
  6
CONTINUOUS
 10
126.2186234483
 20
155.4894191153
 11
126.2186234483
 21
174.1508571501
  0
LINE
  5
22B
100
AcDbEntity
  8
0
100
AcDbLine
 62
2
  6
CONTINUOUS
 10
46.9186234483
 20
97.5894191153
 11
46.9186234483
 21
174.1508571501
  0
LINE
  5
22C
100
AcDbEntity
  8
0
100
AcDbLine
 62
2
  6
CONTINUOUS
 10
126.2186234483
 20
172.6508571501
 11
92.473292709
 21
172.6508571501
  0
LINE
  5
22D
100
AcDbEntity
  8
0
100
AcDbLine
 62
2
  6
CONTINUOUS
 10
46.9186234483
 20
172.6508571501
 11
80.6639541876
 21
172.6508571501
  0
INSERT
  5
22E
100
AcDbEntity
  8
0
100
AcDbBlockReference
 62
2
  6
CONTINUOUS
  2
_FILLED
 10
126.2186234483
 20
172.6508571501
 41
3.5
 42
3.5
 43
3.5
  0
INSERT
  5
22F
100
AcDbEntity
  8
0
100
AcDbBlockReference
 62
2
  6
CONTINUOUS
  2
_FILLED
 10
46.9186234483
 20
172.6508571501
 41
3.5
 42
3.5
 43
3.5
 50
180.0
  0
ENDBLK
  5
230
100
AcDbEntity
  8
0
  6
BYBLOCK
 62
0
100
AcDbBlockEnd
  0
BLOCK
  5
231
100
AcDbEntity
  8
0
100
AcDbBlockBegin
 62
2
  6
CONTINUOUS
  2
*D2
 70
65
 10
0.0
 20
0.0
  3
*D2
  1

  0
TEXT
  5
232
100
AcDbEntity
  8
0
100
AcDbText
 62
2
  6
CONTINUOUS
 10
137.0123773479
 20
151.0634268145
  7
STANDARD
 40
2.5
  1
8
 72
5
 11
138.8314434957
 21
151.0634268145
100
AcDbText
  0
TEXT
  5
233
100
AcDbEntity
  8
0
100
AcDbText
 62
2
  6
CONTINUOUS
 10
138.8314434957
 20
151.0634268145
  7
STANDARD
 40
2.5
  1
mm
 72
5
 11
144.5026497214
 21
151.0634268145
100
AcDbText
  0
TEXT
  5
234
100
AcDbEntity
  8
0
100
AcDbText
 62
2
  6
CONTINUOUS
 10
137.4890310444
 20
147.3134268145
  7
STANDARD
 40
2.5
  1
1/4"
 72
5
 11
144.0259960249
 21
147.3134268145
100
AcDbText
  0
LINE
  5
235
100
AcDbEntity
  8
0
100
AcDbLine
 62
2
  6
CONTINUOUS
 10
127.2186234483
 20
146.0894191153
 11
142.2575135346
 21
146.0894191153
  0
LINE
  5
236
100
AcDbEntity
  8
0
100
AcDbLine
 62
2
  6
CONTINUOUS
 10
127.2186234483
 20
154.4894191153
 11
142.2575135346
 21
154.4894191153
  0
LINE
  5
237
100
AcDbEntity
  8
0
100
AcDbLine
 62
2
  6
CONTINUOUS
 10
140.7575135346
 20
146.0894191153
 11
140.7575135346
 21
142.5894191153
  0
LINE
  5
238
100
AcDbEntity
  8
0
100
AcDbLine
 62
2
  6
CONTINUOUS
 10
140.7575135346
 20
142.5894191153
 11
140.7575135346
 21
146.0634268145
  0
LINE
  5
239
100
AcDbEntity
  8
0
100
AcDbLine
 62
2
  6
CONTINUOUS
 10
140.7575135346
 20
146.0634268145
 11
140.7575135346
 21
141.0894191153
  0
LINE
  5
23A
100
AcDbEntity
  8
0
100
AcDbLine
 62
2
  6
CONTINUOUS
 10
140.7575135346
 20
154.4894191153
 11
140.7575135346
 21
159.4894191153
  0
INSERT
  5
23B
100
AcDbEntity
  8
0
100
AcDbBlockReference
 62
2
  6
CONTINUOUS
  2
_FILLED
 10
140.7575135346
 20
146.0894191153
 41
3.5
 42
3.5
 43
3.5
 50
90.0
  0
INSERT
  5
23C
100
AcDbEntity
  8
0
100
AcDbBlockReference
 62
2
  6
CONTINUOUS
  2
_FILLED
 10
140.7575135346
 20
154.4894191153
 41
3.5
 42
3.5
 43
3.5
 50
270.0
  0
ENDBLK
  5
23D
100
AcDbEntity
  8
0
  6
BYBLOCK
 62
0
100
AcDbBlockEnd
  0
BLOCK
  5
23E
100
AcDbEntity
  8
0
100
AcDbBlockBegin
 62
2
  6
CONTINUOUS
  2
*D3
 70
65
 10
0.0
 20
0.0
  3
*D3
  1

  0
TEXT
  5
23F
100
AcDbEntity
  8
0
100
AcDbText
 62
2
  6
CONTINUOUS
 10
30.9901546578
 20
57.7343601965
  7
STANDARD
 40
2.5
  1
4
 72
5
 11
32.8092208056
 21
57.7343601965
100
AcDbText
  0
TEXT
  5
240
100
AcDbEntity
  8
0
100
AcDbText
 62
2
  6
CONTINUOUS
 10
32.8092208056
 20
57.7343601965
  7
STANDARD
 40
2.5
  1
mm
 72
5
 11
38.4804270313
 21
57.7343601965
100
AcDbText
  0
TEXT
  5
241
100
AcDbEntity
  8
0
100
AcDbText
 62
2
  6
CONTINUOUS
 10
31.9434620508
 20
53.9843601965
  7
STANDARD
 40
2.5
  1
1/8"
 72
5
 11
38.4804270313
 21
53.9843601965
100
AcDbText
  0
TEXT
  5
242
100
AcDbEntity
  8
0
100
AcDbText
 62
2
  6
CONTINUOUS
 10
37.4006604944
 20
50.2343601965
  7
STANDARD
 40
2.5
  1
 
 72
5
 11
38.4804270313
 21
50.2343601965
100
AcDbText
  0
LINE
  5
243
100
AcDbEntity
  8
0
100
AcDbLine
 62
2
  6
CONTINUOUS
 10
46.9186234483
 20
72.0894191153
 11
46.9186234483
 21
57.4843601965
  0
LINE
  5
244
100
AcDbEntity
  8
0
100
AcDbLine
 62
2
  6
CONTINUOUS
 10
51.2186234483
 20
72.0894191153
 11
51.2186234483
 21
57.4843601965
  0
LINE
  5
245
100
AcDbEntity
  8
0
100
AcDbLine
 62
2
  6
CONTINUOUS
 10
46.9186234483
 20
58.9843601965
 11
39.7304270313
 21
58.9843601965
  0
LINE
  5
246
100
AcDbEntity
  8
0
100
AcDbLine
 62
2
  6
CONTINUOUS
 10
51.2186234483
 20
58.9843601965
 11
56.2186234483
 21
58.9843601965
  0
INSERT
  5
247
100
AcDbEntity
  8
0
100
AcDbBlockReference
 62
2
  6
CONTINUOUS
  2
_FILLED
 10
46.9186234483
 20
58.9843601965
 41
3.5
 42
3.5
 43
3.5
  0
INSERT
  5
248
100
AcDbEntity
  8
0
100
AcDbBlockReference
 62
2
  6
CONTINUOUS
  2
_FILLED
 10
51.2186234483
 20
58.9843601965
 41
3.5
 42
3.5
 43
3.5
 50
180.0
  0
ENDBLK
  5
249
100
AcDbEntity
  8
0
  6
BYBLOCK
 62
0
100
AcDbBlockEnd
  0
BLOCK
  5
24A
100
AcDbEntity
  8
0
100
AcDbBlockBegin
 62
2
  6
CONTINUOUS
  2
*D4
 70
65
 10
0.0
 20
0.0
  3
*D4
  1

  0
TEXT
  5
24B
100
AcDbEntity
  8
0
100
AcDbText
 62
2
  6
CONTINUOUS
 10
35.4233825825
 20
124.2894191153
  7
STANDARD
 40
2.5
  1
58
 72
5
 11
39.0615148782
 21
124.2894191153
100
AcDbText
  0
TEXT
  5
24C
100
AcDbEntity
  8
0
100
AcDbText
 62
2
  6
CONTINUOUS
 10
39.0615148782
 20
124.2894191153
  7
STANDARD
 40
2.5
  1
mm
 72
5
 11
44.7327211039
 21
124.2894191153
100
AcDbText
  0
TEXT
  5
24D
100
AcDbEntity
  8
0
100
AcDbText
 62
2
  6
CONTINUOUS
 10
35.2920596253
 20
120.5394191153
  7
STANDARD
 40
2.5
  1
2-1/4"
 72
5
 11
44.8640440611
 21
120.5394191153
100
AcDbText
  0
LINE
  5
24E
100
AcDbEntity
  8
0
100
AcDbLine
 62
2
  6
CONTINUOUS
 10
101.7186234483
 20
154.4894191153
 11
38.5780518432
 21
154.4894191153
  0
LINE
  5
24F
100
AcDbEntity
  8
0
100
AcDbLine
 62
2
  6
CONTINUOUS
 10
45.9186234483
 20
96.5894191153
 11
38.5780518432
 21
96.5894191153
  0
LINE
  5
250
100
AcDbEntity
  8
0
100
AcDbLine
 62
2
  6
CONTINUOUS
 10
40.0780518432
 20
154.4894191153
 11
40.0780518432
 21
128.0394191153
  0
LINE
  5
251
100
AcDbEntity
  8
0
100
AcDbLine
 62
2
  6
CONTINUOUS
 10
40.0780518432
 20
96.5894191153
 11
40.0780518432
 21
119.2894191153
  0
INSERT
  5
252
100
AcDbEntity
  8
0
100
AcDbBlockReference
 62
2
  6
CONTINUOUS
  2
_FILLED
 10
40.0780518432
 20
154.4894191153
 41
3.5
 42
3.5
 43
3.5
 50
90.0
  0
INSERT
  5
253
100
AcDbEntity
  8
0
100
AcDbBlockReference
 62
2
  6
CONTINUOUS
  2
_FILLED
 10
40.0780518432
 20
96.5894191153
 41
3.5
 42
3.5
 43
3.5
 50
270.0
  0
ENDBLK
  5
254
100
AcDbEntity
  8
0
  6
BYBLOCK
 62
0
100
AcDbBlockEnd
  0
BLOCK
  5
255
100
AcDbEntity
  8
0
100
AcDbBlockBegin
 62
2
  6
CONTINUOUS
  2
*D5
 70
65
 10
0.0
 20
0.0
  3
*D5
  1

  0
TEXT
  5
256
100
AcDbEntity
  8
0
100
AcDbText
 62
2
  6
CONTINUOUS
 10
70.1639541876
 20
161.5166489135
  7
STANDARD
 40
2.5
  1
56
 72
5
 11
73.8020864833
 21
161.5166489135
100
AcDbText
  0
TEXT
  5
257
100
AcDbEntity
  8
0
100
AcDbText
 62
2
  6
CONTINUOUS
 10
73.8020864833
 20
161.5166489135
  7
STANDARD
 40
2.5
  1
mm
 72
5
 11
79.473292709
 21
161.5166489135
100
AcDbText
  0
TEXT
  5
258
100
AcDbEntity
  8
0
100
AcDbText
 62
2
  6
CONTINUOUS
 10
70.0326312304
 20
157.7666489135
  7
STANDARD
 40
2.5
  1
2-1/4"
 72
5
 11
79.6046156662
 21
157.7666489135
100
AcDbText
  0
LINE
  5
259
100
AcDbEntity
  8
0
100
AcDbLine
 62
2
  6
CONTINUOUS
 10
102.7186234483
 20
155.4894191153
 11
102.7186234483
 21
164.2666489135
  0
LINE
  5
25A
100
AcDbEntity
  8
0
100
AcDbLine
 62
2
  6
CONTINUOUS
 10
46.9186234483
 20
97.5894191153
 11
46.9186234483
 21
164.2666489135
  0
LINE
  5
25B
100
AcDbEntity
  8
0
100
AcDbLine
 62
2
  6
CONTINUOUS
 10
102.7186234483
 20
162.7666489135
 11
80.723292709
 21
162.7666489135
  0
LINE
  5
25C
100
AcDbEntity
  8
0
100
AcDbLine
 62
2
  6
CONTINUOUS
 10
46.9186234483
 20
162.7666489135
 11
68.9139541876
 21
162.7666489135
  0
INSERT
  5
25D
100
AcDbEntity
  8
0
100
AcDbBlockReference
 62
2
  6
CONTINUOUS
  2
_FILLED
 10
102.7186234483
 20
162.7666489135
 41
3.5
 42
3.5
 43
3.5
  0
INSERT
  5
25E
100
AcDbEntity
  8
0
100
AcDbBlockReference
 62
2
  6
CONTINUOUS
  2
_FILLED
 10
46.9186234483
 20
162.7666489135
 41
3.5
 42
3.5
 43
3.5
 50
180.0
  0
ENDBLK
  5
25F
100
AcDbEntity
  8
0
  6
BYBLOCK
 62
0
100
AcDbBlockEnd
  0
BLOCK
  5
260
100
AcDbEntity
  8
0
100
AcDbBlockBegin
 62
2
  6
CONTINUOUS
  2
*D6
 70
65
 10
0.0
 20
0.0
  3
*D6
  1

  0
TEXT
  5
261
100
AcDbEntity
  8
0
100
AcDbText
 62
2
  6
CONTINUOUS
 10
100.9117445826
 20
93.1456752444
  7
STANDARD
 40
2.5
  1
114
 72
5
 11
106.3689430262
 21
93.1456752444
100
AcDbText
  0
TEXT
  5
262
100
AcDbEntity
  8
0
100
AcDbText
 62
2
  6
CONTINUOUS
 10
106.3689430262
 20
93.1456752444
  7
STANDARD
 40
2.5
  1
mm
 72
5
 11
112.0401492519
 21
93.1456752444
100
AcDbText
  0
TEXT
  5
263
100
AcDbEntity
  8
0
100
AcDbText
 62
2
  6
CONTINUOUS
 10
101.6899546994
 20
89.3956752444
  7
STANDARD
 40
2.5
  1
4-1/2"
 72
5
 11
111.2619391352
 21
89.3956752444
100
AcDbText
  0
LINE
  5
264
100
AcDbEntity
  8
0
100
AcDbLine
 62
2
  6
CONTINUOUS
 10
126.9349094226
 20
153.7916122631
 11
147.2003758788
 21
134.0489649661
  0
LINE
  5
265
100
AcDbEntity
  8
0
100
AcDbLine
 62
2
  6
CONTINUOUS
 10
47.6349094226
 20
72.3916122631
 11
67.9003758788
 21
52.6489649661
  0
LINE
  5
266
100
AcDbEntity
  8
0
100
AcDbLine
 62
2
  6
CONTINUOUS
 10
146.1259469173
 20
135.0956752444
 11
108.9114506028
 21
96.8956752444
  0
LINE
  5
267
100
AcDbEntity
  8
0
100
AcDbLine
 62
2
  6
CONTINUOUS
 10
66.8259469173
 20
53.6956752444
 11
100.4399546994
 21
88.1998396008
  0
INSERT
  5
268
100
AcDbEntity
  8
0
100
AcDbBlockReference
 62
2
  6
CONTINUOUS
  2
_FILLED
 10
146.1259469173
 20
135.0956752444
 41
3.5
 42
3.5
 43
3.5
 50
45.7486887908
  0
INSERT
  5
269
100
AcDbEntity
  8
0
100
AcDbBlockReference
 62
2
  6
CONTINUOUS
  2
_FILLED
 10
66.8259469173
 20
53.6956752444
 41
3.5
 42
3.5
 43
3.5
 50
225.7486887908
  0
ENDBLK
  5
26A
100
AcDbEntity
  8
0
  6
BYBLOCK
 62
0
100
AcDbBlockEnd
  0
BLOCK
  5
26B
100
AcDbEntity
  8
0
100
AcDbBlockBegin
 62
2
  6
CONTINUOUS
  2
*D7
 70
65
 10
0.0
 20
0.0
  3
*D7
  1

  0
TEXT
  5
26C
100
AcDbEntity
  8
0
100
AcDbText
 62
2
  6
CONTINUOUS
 10
49.4139541876
 20
49.1232603074
  7
STANDARD
 40
2.5
  1
14
 72
5
 11
53.0520864833
 21
49.1232603074
100
AcDbText
  0
TEXT
  5
26D
100
AcDbEntity
  8
0
100
AcDbText
 62
2
  6
CONTINUOUS
 10
53.0520864833
 20
49.1232603074
  7
STANDARD
 40
2.5
  1
mm
 72
5
 11
58.723292709
 21
49.1232603074
100
AcDbText
  0
TEXT
  5
26E
100
AcDbEntity
  8
0
100
AcDbText
 62
2
  6
CONTINUOUS
 10
50.800140958
 20
45.3732603074
  7
STANDARD
 40
2.5
  1
1/2"
 72
5
 11
57.3371059385
 21
45.3732603074
100
AcDbText
  0
LINE
  5
26F
100
AcDbEntity
  8
0
100
AcDbLine
 62
2
  6
CONTINUOUS
 10
46.9186234483
 20
72.0894191153
 11
46.9186234483
 21
48.8732603074
  0
LINE
  5
270
100
AcDbEntity
  8
0
100
AcDbLine
 62
2
  6
CONTINUOUS
 10
61.2186234483
 20
87.5894191153
 11
61.2186234483
 21
48.8732603074
  0
LINE
  5
271
100
AcDbEntity
  8
0
100
AcDbLine
 62
2
  6
CONTINUOUS
 10
46.9186234483
 20
50.3732603074
 11
41.9186234483
 21
50.3732603074
  0
LINE
  5
272
100
AcDbEntity
  8
0
100
AcDbLine
 62
2
  6
CONTINUOUS
 10
61.2186234483
 20
50.3732603074
 11
66.2186234483
 21
50.3732603074
  0
INSERT
  5
273
100
AcDbEntity
  8
0
100
AcDbBlockReference
 62
2
  6
CONTINUOUS
  2
_FILLED
 10
46.9186234483
 20
50.3732603074
 41
3.5
 42
3.5
 43
3.5
  0
INSERT
  5
274
100
AcDbEntity
  8
0
100
AcDbBlockReference
 62
2
  6
CONTINUOUS
  2
_FILLED
 10
61.2186234483
 20
50.3732603074
 41
3.5
 42
3.5
 43
3.5
 50
180.0
  0
ENDBLK
  5
275
100
AcDbEntity
  8
0
  6
BYBLOCK
 62
0
100
AcDbBlockEnd
  0
BLOCK
  5
276
100
AcDbEntity
  8
0
100
AcDbBlockBegin
  2
*T1
 70
1
 10
0.0
 20
0.0
  3
*T1
  1

  0
LINE
  5
277
100
AcDbEntity
  8
0
100
AcDbLine
 62
7
  6
CONTINUOUS
 10
0.0
 20
0.0
 11
148.0
 21
0.0
  0
LINE
  5
278
100
AcDbEntity
  8
0
100
AcDbLine
 62
7
  6
CONTINUOUS
 10
0.0
 20
0.0
 11
0.0
 21
-43.0
  0
LINE
  5
279
100
AcDbEntity
  8
0
100
AcDbLine
 62
7
  6
CONTINUOUS
 10
45.0
 20
-20.0
 11
148.0
 21
-20.0
  0
LINE
  5
27A
100
AcDbEntity
  8
0
100
AcDbLine
 62
7
  6
CONTINUOUS
 10
45.0
 20
-28.0
 11
148.0
 21
-28.0
  0
LINE
  5
27B
100
AcDbEntity
  8
0
100
AcDbLine
 62
7
  6
CONTINUOUS
 10
0.0
 20
-43.0
 11
148.0
 21
-43.0
  0
LINE
  5
27C
100
AcDbEntity
  8
0
100
AcDbLine
 62
7
  6
CONTINUOUS
 10
45.0
 20
0.0
 11
45.0
 21
-43.0
  0
LINE
  5
27D
100
AcDbEntity
  8
0
100
AcDbLine
 62
7
  6
CONTINUOUS
 10
143.0
 20
0.0
 11
143.0
 21
-20.0
  0
LINE
  5
27E
100
AcDbEntity
  8
0
100
AcDbLine
 62
7
  6
CONTINUOUS
 10
148.0
 20
0.0
 11
148.0
 21
-43.0
  0
TEXT
  5
27F
100
AcDbEntity
  8
0
100
AcDbText
 62
7
  6
CONTINUOUS
 10
8.9659749243
 20
-9.175
  7
STANDARD
 40
8.0
  1
O
 72
5
 11
17.370644185
 21
-9.175
100
AcDbText
  0
TEXT
  5
280
100
AcDbEntity
  8
0
100
AcDbText
 62
7
  6
CONTINUOUS
 10
17.370644185
 20
-9.175
  7
STANDARD
 40
5.5
  1
RAC
 72
5
 11
33.9562472979
 21
-9.175
100
AcDbText
  0
TEXT
  5
281
100
AcDbEntity
  8
0
100
AcDbText
 62
7
  6
CONTINUOUS
 10
33.9562472979
 20
-4.425
  7
TEXTSTYLE_2
 40
3.0
  1
®
 72
5
 11
36.0340250757
 21
-4.425
100
AcDbText
  0
TEXT
  5
282
100
AcDbEntity
  8
0
100
AcDbText
 62
7
  6
CONTINUOUS
 10
9.5323389537
 20
-13.825
  7
TEXTSTYLE_2
 40
3.0
  1
D  E  C  O  R
 72
5
 11
34.3878945093
 21
-13.825
100
AcDbText
  0
TEXT
  5
283
100
AcDbEntity
  8
0
100
AcDbText
 62
7
  6
CONTINUOUS
 10
34.3878945093
 20
-13.825
  7
STANDARD
 40
2.5
  1
 
 72
5
 11
35.4676610463
 21
-13.825
100
AcDbText
  0
TEXT
  5
284
100
AcDbEntity
  8
0
100
AcDbText
 62
7
  6
CONTINUOUS
 10
54.424270428
 20
-4.6
  7
STANDARD
 40
2.7
  1
Part name:
 72
5
 11
71.9375
 21
-4.6
100
AcDbText
  0
TEXT
  5
285
100
AcDbEntity
  8
0
100
AcDbText
 62
7
  6
CONTINUOUS
 10
50.6211575875
 20
-11.35
  7
STANDARD
 40
2.7
  1
Designed by:
 72
5
 11
71.9375
 21
-11.35
100
AcDbText
  0
TEXT
  5
286
100
AcDbEntity
  8
0
100
AcDbText
 62
7
  6
CONTINUOUS
 10
50.6211575875
 20
-18.1
  7
STANDARD
 40
2.7
  1
Designed on:
 72
5
 11
71.9375
 21
-18.1
100
AcDbText
  0
TEXT
  5
287
100
AcDbEntity
  8
0
100
AcDbText
 62
2
  6
CONTINUOUS
 10
74.0625
 20
-4.6
  7
STANDARD
 40
2.7
  1
C213
 72
5
 11
82.6457684825
 21
-4.6
100
AcDbText
  0
TEXT
  5
288
100
AcDbEntity
  8
0
100
AcDbText
 62
2
  6
CONTINUOUS
 10
74.0625
 20
-11.35
  7
STANDARD
 40
2.7
  1
ORAC
 72
5
 11
85.0410992218
 21
-11.35
100
AcDbText
  0
TEXT
  5
289
100
AcDbEntity
  8
0
100
AcDbText
 62
2
  6
CONTINUOUS
 10
74.0625
 20
-18.1
  7
STANDARD
 40
2.7
  1
29-Jul-1977
 72
5
 11
93.0570525292
 21
-18.1
100
AcDbText
  0
TEXT
  5
28A
100
AcDbEntity
  8
0
100
AcDbText
 62
2
  6
CONTINUOUS
 10
93.0570525292
 20
-18.1
  7
STANDARD
 40
2.7
  1
 
 72
5
 11
94.2232003891
 21
-18.1
100
AcDbText
  0
TEXT
  5
28B
100
AcDbEntity
  8
0
100
AcDbText
 62
2
  6
CONTINUOUS
 10
146.5625
 20
-15.9620622568
  7
STANDARD
 40
1.5
  1
Version: 
 50
90.0
 72
5
 11
146.5625
 21
-7.5982490272
100
AcDbText
  0
TEXT
  5
28C
100
AcDbEntity
  8
0
100
AcDbText
 62
2
  6
CONTINUOUS
 10
146.5625
 20
-7.5982490272
  7
STANDARD
 40
1.5
  1
1.0
 50
90.0
 72
5
 11
146.5625
 21
-4.6857976654
100
AcDbText
  0
TEXT
  5
28D
100
AcDbEntity
  8
0
100
AcDbText
 62
2
  6
CONTINUOUS
 10
146.5625
 20
-4.6857976654
  7
STANDARD
 40
1.5
  1
 
 50
90.0
 72
5
 11
146.5625
 21
-4.0379377432
100
AcDbText
  0
TEXT
  5
28E
100
AcDbEntity
  8
0
100
AcDbText
 62
7
  6
CONTINUOUS
 10
10.5836575875
 20
-22.75
  7
STANDARD
 40
2.5
  1
Biekorfstraat 32
 72
5
 11
34.4163424125
 21
-22.75
100
AcDbText
  0
TEXT
  5
28F
100
AcDbEntity
  8
0
100
AcDbText
 62
7
  6
CONTINUOUS
 10
3.560311284
 20
-26.5
  7
STANDARD
 40
2.5
  1
8400 Oostende - Belgium
 72
5
 11
41.439688716
 21
-26.5
100
AcDbText
  0
TEXT
  5
290
100
AcDbEntity
  8
0
100
AcDbText
 62
7
  6
CONTINUOUS
 10
3.9688715953
 20
-30.25
  7
STANDARD
 40
2.5
  1
Tel  +32 (0)59 80 32 52
 72
5
 11
41.0311284047
 21
-30.25
100
AcDbText
  0
TEXT
  5
291
100
AcDbEntity
  8
0
100
AcDbText
 62
7
  6
CONTINUOUS
 10
6.9017509728
 20
-34.0
  7
STANDARD
 40
2.5
  1
www.oracdecor.com
 72
5
 11
38.0982490272
 21
-34.0
100
AcDbText
  0
TEXT
  5
292
100
AcDbEntity
  8
0
100
AcDbText
 62
7
  6
CONTINUOUS
 10
6.9017509728
 20
-37.75
  7
STANDARD
 40
2.5
  1
info@oracdecor.com
 72
5
 11
38.0982490272
 21
-37.75
100
AcDbText
  0
TEXT
  5
293
100
AcDbEntity
  8
0
100
AcDbText
 62
7
  6
CONTINUOUS
 10
46.0625
 20
-23.375
  7
STANDARD
 40
2.5
  1
Unless otherwise specified: all dimensions are in millimeters 
 72
5
 11
137.5605544747
 21
-23.375
100
AcDbText
  0
TEXT
  5
294
100
AcDbEntity
  8
0
100
AcDbText
 62
7
  6
CONTINUOUS
 10
46.0625
 20
-27.125
  7
STANDARD
 40
2.5
  1
and inches, scale 1:1, length 2 meters
 72
5
 11
102.3660019455
 21
-27.125
100
AcDbText
  0
TEXT
  5
295
100
AcDbEntity
  8
0
100
AcDbText
 62
7
  6
CONTINUOUS
 10
46.0625
 20
-31.81
  7
STANDARD
 40
1.8
  1
All information in this document is Orac's exclusive property.  It may in no case 
 72
5
 11
133.5901264591
 21
-31.81
100
AcDbText
  0
TEXT
  5
296
100
AcDbEntity
  8
0
100
AcDbText
 62
7
  6
CONTINUOUS
 10
46.0625
 20
-34.87
  7
STANDARD
 40
1.8
  1
be reproduced, even partly, be communicated to a third party or used for any 
 72
5
 11
129.8990758755
 21
-34.87
100
AcDbText
  0
TEXT
  5
297
100
AcDbEntity
  8
0
100
AcDbText
 62
7
  6
CONTINUOUS
 10
46.0625
 20
-37.93
  7
STANDARD
 40
1.8
  1
possible purpose without ORAC's express written permission. Further legal 
 72
5
 11
128.2321498054
 21
-37.93
100
AcDbText
  0
TEXT
  5
298
100
AcDbEntity
  8
0
100
AcDbText
 62
7
  6
CONTINUOUS
 10
46.0625
 20
-40.99
  7
STANDARD
 40
1.8
  1
information can be found at https://www.oracdecor.com/en/general-sales-conditions
 72
5
 11
136.4547178988
 21
-40.99
100
AcDbText
  0
ENDBLK
  5
299
100
AcDbEntity
  8
0
  6
BYBLOCK
 62
0
100
AcDbBlockEnd
  0
ENDSEC
  0
SECTION
  2
ENTITIES
  0
VIEWPORT
  5
29A
100
AcDbEntity
 67
1
  8
0
100
AcDbViewport
 10
148.5
 20
105.0
 30
0.0
 40
297.0
 41
210.0
 68
1
 69
1
 12
148.5
 22
105.0
 13
0.0
 23
0.0
 14
10.0
 24
10.0
 15
10.0
 25
10.0
 16
0.0
 26
0.0
 36
1.0
 17
0.0
 27
0.0
 37
0.0
 42
50.0
 43
0.0
 44
0.0
 45
210.0
 50
0.0
 51
0.0
 72
100
 90
32864
  1

281
0
 71
1
 74
0
110
0.0
120
0.0
130
0.0
111
1.0
121
0.0
131
0.0
112
0.0
122
1.0
132
0.0
 79
0
146
0.0
  0
DIMENSION
  5
29B
100
AcDbEntity
 67
1
  8
0
100
AcDbDimension
 62
2
  6
CONTINUOUS
  2
*D0
 10
27.5899049958
 20
73.0894191153
 11
27.5899049958
 21
111.9144191153
 70
160
 71
2
 72
2
 41
0.9
 42
81.4
  1
<>mm\P3-1/8"
  3
DIMSTYLE_1
100
AcDbAlignedDimension
 13
102.7186234483
 23
154.4894191153
 14
46.9186234483
 24
73.0894191153
 50
270.0
100
AcDbRotatedDimension
  0
DIMENSION
  5
29C
100
AcDbEntity
 67
1
  8
0
100
AcDbDimension
 62
2
  6
CONTINUOUS
  2
*D1
 10
46.9186234483
 20
172.6508571501
 11
86.5686234483
 21
170.7758571501
 70
160
 71
2
 72
2
 41
0.9
 42
79.3
  1
<>mm\P3-1/8"
  3
DIMSTYLE_1
100
AcDbAlignedDimension
 13
126.2186234483
 23
154.4894191153
 14
46.9186234483
 24
96.5894191153
 50
180.0
100
AcDbRotatedDimension
  0
DIMENSION
  5
29D
100
AcDbEntity
 67
1
  8
0
100
AcDbDimension
 62
2
  6
CONTINUOUS
  2
*D2
 10
140.7575135346
 20
154.4894191153
 11
140.7575135346
 21
150.4384268145
 70
160
 71
2
 72
2
 41
0.9
 42
8.4
  1
<>mm\P1/4"
  3
DIMSTYLE_2
100
AcDbAlignedDimension
 13
126.2186234483
 23
146.0894191153
 14
126.2186234483
 24
154.4894191153
 50
90.0
100
AcDbRotatedDimension
  0
DIMENSION
  5
29E
100
AcDbEntity
 67
1
  8
0
100
AcDbDimension
 62
2
  6
CONTINUOUS
  2
*D3
 10
51.2186234483
 20
58.9843601965
 11
34.7352908446
 21
57.1093601965
 70
160
 71
3
 72
2
 41
0.9
 42
4.3
  1
<>mm\P1/8"\P 
  3
DIMSTYLE_2
100
AcDbAlignedDimension
 13
46.9186234483
 23
73.0894191153
 14
51.2186234483
 24
73.0894191153
100
AcDbRotatedDimension
  0
DIMENSION
  5
29F
100
AcDbEntity
 67
1
  8
0
100
AcDbDimension
 62
2
  6
CONTINUOUS
  2
*D4
 10
40.0780518432
 20
96.5894191153
 11
40.0780518432
 21
123.6644191153
 70
160
 71
2
 72
2
 41
0.9
 42
57.9
  1
<>mm\P2-1/4"
  3
DIMSTYLE_2
100
AcDbAlignedDimension
 13
102.7186234483
 23
154.4894191153
 14
46.9186234483
 24
96.5894191153
 50
270.0
100
AcDbRotatedDimension
  0
DIMENSION
  5
2A0
100
AcDbEntity
 67
1
  8
0
100
AcDbDimension
 62
2
  6
CONTINUOUS
  2
*D5
 10
46.9186234483
 20
162.7666489135
 11
74.8186234483
 21
160.8916489135
 70
160
 71
2
 72
2
 41
0.9
 42
55.8
  1
<>mm\P2-1/4"
  3
DIMSTYLE_2
100
AcDbAlignedDimension
 13
102.7186234483
 23
154.4894191153
 14
46.9186234483
 24
96.5894191153
 50
180.0
100
AcDbRotatedDimension
  0
DIMENSION
  5
2A1
100
AcDbEntity
 67
1
  8
0
100
AcDbDimension
 62
2
  6
CONTINUOUS
  2
*D6
 10
66.8259469173
 20
53.6956752444
 11
106.4759469173
 21
92.5206752444
 70
160
 71
2
 72
2
 41
0.9
 42
113.64176169
  1
<>mm\P4-1/2"
  3
DIMSTYLE_2
100
AcDbAlignedDimension
 13
126.2186234483
 23
154.4894191153
 14
46.9186234483
 24
73.0894191153
 50
225.7486887908
100
AcDbRotatedDimension
  0
DIMENSION
  5
2A2
100
AcDbEntity
 67
1
  8
0
100
AcDbDimension
 62
2
  6
CONTINUOUS
  2
*D7
 10
61.2186234483
 20
50.3732603074
 11
54.0686234483
 21
48.4982603074
 70
160
 71
2
 72
2
 41
0.9
 42
14.3
  1
<>mm\P1/2"
  3
DIMSTYLE_2
100
AcDbAlignedDimension
 13
46.9186234483
 23
73.0894191153
 14
61.2186234483
 24
88.5894191153
100
AcDbRotatedDimension
  0
ACAD_TABLE
  5
2A3
100
AcDbEntity
 67
1
  8
0
 62
2
  6
CONTINUOUS
100
AcDbBlockReference
  2
*T1
 10
144.0
 20
48.0
 30
0.0
100
AcDbTable
342
       2FF
343
214
 11
1.0
 21
0.0
 31
0.0
 90
22
 91
4
 92
4
 93
0
 94
0
 95
0
 96
0
141
15.0
141
5.0
141
8.0
141
15.0
142
45.0
142
28.0
142
70.0
142
5.0
171
1
172
0
173
0
174
0
175
1
176
1
 91
41
178
0
145
0.0
301
CELL_VALUE
 90
4
  1
\A1;O\H5.5;RAC\fCG Triumvirate;\H3.0;\S®^ ;\PD  E  C  O  R\fCG Times;\H2.5; 
304
ACVALUE_END
170
5
140
8.0
 64
7
171
1
172
0
173
0
174
0
175
1
176
2
 91
41
178
0
145
0.0
301
CELL_VALUE
 90
4
  1
Part name:\PDesigned by:\PDesigned on:
304
ACVALUE_END
170
6
140
2.7
 64
7
171
1
172
0
173
0
174
0
175
1
176
2
 91
33
178
0
145
0.0
301
CELL_VALUE
 90
4
  1
C213\PORAC\P29-Jul-1977 
304
ACVALUE_END
170
4
140
2.7
171
1
172
0
173
0
174
0
175
1
176
2
 91
33
178
0
145
1.5707963268
301
CELL_VALUE
 90
4
  1
Version: 1.0 
304
ACVALUE_END
170
6
140
1.5
171
1
172
0
173
0
174
0
175
1
176
3
 91
41
178
0
145
0.0
301
CELL_VALUE
 90
4
  1
Biekorfstraat 32\P8400 Oostende - Belgium\PTel  +32 (0)59 80 32 52\Pwww.oracdecor.com\Pinfo@oracdecor.com
304
ACVALUE_END
170
5
140
2.5
 64
7
171
1
172
0
173
1
174
0
175
1
176
1
 91
1
178
0
145
0.0
170
1
171
1
172
0
173
1
174
0
175
1
176
1
 91
1
178
0
145
0.0
170
1
171
1
172
0
173
1
174
0
175
1
176
1
 91
1
178
0
145
0.0
170
1
171
1
172
0
173
1
174
0
175
1
176
1
 91
1
178
0
145
0.0
170
1
171
1
172
0
173
0
174
0
175
3
176
1
 91
41
178
0
145
0.0
301
CELL_VALUE
 90
4
  1
Unless otherwise specified: all dimensions are in millimeters \Pand inches, scale 1:1, length 2 meters
304
ACVALUE_END
170
4
140
2.5
 64
7
171
1
172
0
173
1
174
0
175
1
176
1
 91
1
178
0
145
0.0
170
1
171
1
172
0
173
1
174
0
175
1
176
1
 91
1
178
0
145
0.0
170
1
171
1
172
0
173
1
174
0
175
1
176
1
 91
1
178
0
145
0.0
170
1
171
1
172
0
173
0
174
0
175
3
176
1
 91
41
178
0
145
0.0
301
CELL_VALUE
 90
4
  2
All information in this document is Orac's exclusive property.  It may in no case \Pbe reproduced, even partly, be communicated to a third party or used for any \Ppossible purpose without ORAC's express written permission. Further legal \Pinformation
  1
 can be found at https://www.oracdecor.com/en/general-sales-conditions
304
ACVALUE_END
170
4
140
1.8
 64
7
171
1
172
0
173
1
174
0
175
1
176
1
 91
1
178
0
145
0.0
170
1
171
1
172
0
173
1
174
0
175
1
176
1
 91
1
178
0
145
0.0
170
1
  0
LINE
  5
2A4
100
AcDbEntity
 67
1
  8
0
100
AcDbLine
 62
5
  6
CONTINUOUS
 10
0.0
 20
0.0
 11
0.0
 21
210.0
  0
LINE
  5
2A5
100
AcDbEntity
 67
1
  8
0
100
AcDbLine
 62
7
  6
CONTINUOUS
 10
5.0
 20
5.0
 11
5.0
 21
195.0
  0
LINE
  5
2A6
100
AcDbEntity
 67
1
  8
0
100
AcDbLine
 62
5
  6
CONTINUOUS
 10
0.0
 20
0.0
 11
297.0
 21
0.0
  0
LINE
  5
2A7
100
AcDbEntity
 67
1
  8
0
100
AcDbLine
 62
7
  6
CONTINUOUS
 10
5.0
 20
5.0
 11
292.0
 21
5.0
  0
LINE
  5
2A8
100
AcDbEntity
 67
1
  8
0
100
AcDbLine
 62
4
  6
CONTINUOUS
 10
148.5
 20
195.0
 11
148.5
 21
205.0
  0
LINE
  5
2A9
100
AcDbEntity
 67
1
  8
0
100
AcDbLine
 62
7
  6
CONTINUOUS
 10
5.0
 20
195.0
 11
292.0
 21
195.0
  0
LINE
  5
2AA
100
AcDbEntity
 67
1
  8
0
100
AcDbLine
 62
5
  6
CONTINUOUS
 10
0.0
 20
210.0
 11
297.0
 21
210.0
  0
LINE
  5
2AB
100
AcDbEntity
 67
1
  8
0
100
AcDbLine
 62
7
  6
CONTINUOUS
 10
292.0
 20
5.0
 11
292.0
 21
195.0
  0
LINE
  5
2AC
100
AcDbEntity
 67
1
  8
0
100
AcDbLine
 62
5
  6
CONTINUOUS
 10
297.0
 20
0.0
 11
297.0
 21
210.0
  0
LINE
  5
2AD
100
AcDbEntity
 67
1
  8
0
100
AcDbLine
 62
7
  6
CONTINUOUS
 10
202.3046953827
 20
54.0028473593
 11
206.6035063745
 21
54.0495636832
  0
LINE
  5
2AE
100
AcDbEntity
 67
1
  8
0
100
AcDbLine
 62
7
  6
CONTINUOUS
 10
160.0217955286
 20
107.9711699359
 11
159.9166704606
 21
118.1779944206
  0
LINE
  5
2AF
100
AcDbEntity
 67
1
  8
0
100
AcDbLine
 62
7
  6
CONTINUOUS
 10
159.8718783431
 20
122.5269598064
 11
159.7798599819
 21
131.4612252504
  0
LINE
  5
2B0
100
AcDbEntity
 67
1
  8
0
100
AcDbLine
 62
7
  6
CONTINUOUS
 10
202.3046953827
 20
54.0028473593
 11
160.0217955286
 21
107.9711699359
  0
LINE
  5
2B1
100
AcDbEntity
 67
1
  8
0
100
AcDbLine
 62
7
  6
CONTINUOUS
 10
174.9329136559
 20
145.7460464669
 11
192.2431848833
 21
163.4239400608
  0
LINE
  5
2B2
100
AcDbEntity
 67
1
  8
0
100
AcDbLine
 62
7
  6
CONTINUOUS
 10
216.4411667297
 20
69.6516470363
 11
220.1701353342
 21
69.6921707313
  0
LINE
  5
2B3
100
AcDbEntity
 67
1
  8
0
100
AcDbLine
 62
7
  6
CONTINUOUS
 10
206.6035063745
 20
54.0495636832
 11
164.3206065204
 21
108.0178862598
  0
LINE
  5
2B4
100
AcDbEntity
 67
1
  8
0
100
AcDbLine
 62
7
  6
CONTINUOUS
 10
208.7939808626
 20
170.6072923387
 11
213.6521654118
 21
175.5686513141
  0
LINE
  5
2B5
100
AcDbEntity
 67
1
  8
0
100
AcDbLine
 62
7
  6
CONTINUOUS
 10
161.064896347
 20
121.1354275319
 11
159.8718783431
 21
122.5269598064
  0
LINE
  5
2B6
100
AcDbEntity
 67
1
  8
0
100
AcDbLine
 62
7
  6
CONTINUOUS
 10
161.1153733898
 20
121.0738122468
 11
161.064896347
 21
121.1354275319
  0
LINE
  5
2B7
100
AcDbEntity
 67
1
  8
0
100
AcDbLine
 62
7
  6
CONTINUOUS
 10
161.3817532747
 20
120.599811535
 11
159.8718783431
 21
122.5269598064
  0
LINE
  5
2B8
100
AcDbEntity
 67
1
  8
0
100
AcDbLine
 62
7
  6
CONTINUOUS
 10
216.4411667297
 20
69.6516470363
 11
174.1582668756
 21
123.619969613
  0
LINE
  5
2B9
100
AcDbEntity
 67
1
  8
0
100
AcDbLine
 62
7
  6
CONTINUOUS
 10
220.1701353342
 20
69.6921707313
 11
177.8872354801
 21
123.6604933079
  0
LINE
  5
2BA
100
AcDbEntity
 67
1
  8
0
100
AcDbLine
 62
7
  6
CONTINUOUS
 10
160.0217955286
 20
107.9711699359
 11
164.3206065204
 21
108.0178862598
  0
LINE
  5
2BB
100
AcDbEntity
 67
1
  8
0
100
AcDbLine
 62
7
  6
CONTINUOUS
 10
214.9683425205
 20
189.942949023
 11
215.0798277813
 21
179.1185994019
  0
LINE
  5
2BC
100
AcDbEntity
 67
1
  8
0
100
AcDbLine
 62
7
  6
CONTINUOUS
 10
216.7654569969
 20
161.0714752624
 11
216.7088337839
 21
166.5691477828
  0
LINE
  5
2BD
100
AcDbEntity
 67
1
  8
0
100
AcDbLine
 62
7
  6
CONTINUOUS
 10
174.1582668756
 20
123.619969613
 11
177.8872354801
 21
123.6604933079
  0
LINE
  5
2BE
100
AcDbEntity
 67
1
  8
0
100
AcDbLine
 62
7
  6
CONTINUOUS
 10
276.3324677065
 20
127.7846021087
 11
280.8312233957
 21
127.833491285
  0
LINE
  5
2BF
100
AcDbEntity
 67
1
  8
0
100
AcDbLine
 62
7
  6
CONTINUOUS
 10
228.1546755912
 20
190.0862484164
 11
228.2799373873
 21
188.295231643
  0
LINE
  5
2C0
100
AcDbEntity
 67
1
  8
0
100
AcDbLine
 62
7
  6
CONTINUOUS
 10
159.7798599819
 20
131.4612252504
 11
165.5960220355
 21
131.5244310324
  0
LINE
  5
2C1
100
AcDbEntity
 67
1
  8
0
100
AcDbLine
 62
7
  6
CONTINUOUS
 10
234.0856008062
 20
178.2544058087
 11
234.0495678525
 21
181.7529246854
  0
LINE
  5
2C2
100
AcDbEntity
 67
1
  8
0
100
AcDbLine
 62
7
  6
CONTINUOUS
 10
238.5483235416
 20
181.8018138616
 11
238.4618444526
 21
190.1982591655
  0
LINE
  5
2C3
100
AcDbEntity
 67
1
  8
0
100
AcDbLine
 62
7
  6
CONTINUOUS
 10
259.048356851
 20
107.1031526858
 11
216.7654569969
 21
161.0714752624
  0
LINE
  5
2C4
100
AcDbEntity
 67
1
  8
0
100
AcDbLine
 62
7
  6
CONTINUOUS
 10
258.991733638
 20
112.6008252062
 11
216.7088337839
 21
166.5691477828
  0
LINE
  5
2C5
100
AcDbEntity
 67
1
  8
0
100
AcDbLine
 62
7
  6
CONTINUOUS
 10
259.048356851
 20
107.1031526858
 11
258.991733638
 21
112.6008252062
  0
LINE
  5
2C6
100
AcDbEntity
 67
1
  8
0
100
AcDbLine
 62
7
  6
CONTINUOUS
 10
276.3685006603
 20
124.2860832321
 11
234.0856008062
 21
178.2544058087
  0
LINE
  5
2C7
100
AcDbEntity
 67
1
  8
0
100
AcDbLine
 62
7
  6
CONTINUOUS
 10
276.3324677066
 20
127.7846021087
 11
234.0495678525
 21
181.7529246854
  0
LINE
  5
2C8
100
AcDbEntity
 67
1
  8
0
100
AcDbLine
 62
7
  6
CONTINUOUS
 10
225.3422213432
 20
186.7778254388
 11
221.4019283406
 21
190.0128645136
  0
LINE
  5
2C9
100
AcDbEntity
 67
1
  8
0
100
AcDbLine
 62
7
  6
CONTINUOUS
 10
280.8312233957
 20
127.833491285
 11
238.5483235416
 21
181.8018138616
  0
LINE
  5
2CA
100
AcDbEntity
 67
1
  8
0
100
AcDbLine
 62
7
  6
CONTINUOUS
 10
276.3685006603
 20
124.2860832321
 11
276.3324677065
 21
127.7846021087
  0
LINE
  5
2CB
100
AcDbEntity
 67
1
  8
0
100
AcDbLine
 62
7
  6
CONTINUOUS
 10
280.8312233957
 20
127.833491285
 11
280.7447443066
 21
136.2299365888
  0
LINE
  5
2CC
100
AcDbEntity
 67
1
  8
0
100
AcDbLine
 62
7
  6
CONTINUOUS
 10
234.0495678525
 20
181.7529246854
 11
238.5483235416
 21
181.8018138616
  0
LINE
  5
2CD
100
AcDbEntity
 67
1
  8
0
100
AcDbLine
 62
7
  6
CONTINUOUS
 10
238.4618444526
 20
190.1982591655
 11
280.7447443066
 21
136.2299365888
  0
LINE
  5
2CE
100
AcDbEntity
 67
1
  8
0
100
AcDbLine
 62
7
  6
CONTINUOUS
 10
238.4618444526
 20
190.1982591655
 11
228.1546755912
 21
190.0862484164
  0
LINE
  5
2CF
100
AcDbEntity
 67
1
  8
0
100
AcDbLine
 62
7
  6
CONTINUOUS
 10
221.4019283406
 20
190.0128645136
 11
214.9683425205
 21
189.942949023
  0
LINE
  5
2D0
100
AcDbEntity
 67
1
  8
0
100
AcDbLine
 62
7
  6
CONTINUOUS
 10
48.0975034459
 20
86.2464368127
 11
46.9186234483
 21
87.6513712851
  0
LINE
  5
2D1
100
AcDbEntity
 67
1
  8
0
100
AcDbLine
 62
7
  6
CONTINUOUS
 10
46.9186234483
 20
73.0894191153
 11
46.9186234483
 21
83.3005647333
  0
LINE
  5
2D2
100
AcDbEntity
 67
1
  8
0
100
AcDbLine
 62
7
  6
CONTINUOUS
 10
46.9186234483
 20
87.6513712851
 11
46.9186234483
 21
96.5894191153
  0
LINE
  5
2D3
100
AcDbEntity
 67
1
  8
0
100
AcDbLine
 62
7
  6
CONTINUOUS
 10
46.9186234483
 20
73.0894191153
 11
51.2186234483
 21
73.0894191153
  0
LINE
  5
2D4
100
AcDbEntity
 67
1
  8
0
100
AcDbLine
 62
7
  6
CONTINUOUS
 10
61.2186234483
 20
88.5894191153
 11
64.9486234483
 21
88.5894191153
  0
LINE
  5
2D5
100
AcDbEntity
 67
1
  8
0
100
AcDbLine
 62
7
  6
CONTINUOUS
 10
62.2213225567
 20
110.7139650074
 11
79.7165470548
 21
128.2091895055
  0
LINE
  5
2D6
100
AcDbEntity
 67
1
  8
0
100
AcDbLine
 62
7
  6
CONTINUOUS
 10
46.9186234483
 20
96.5894191153
 11
52.7363941942
 21
96.5894191153
  0
LINE
  5
2D7
100
AcDbEntity
 67
1
  8
0
100
AcDbLine
 62
7
  6
CONTINUOUS
 10
96.3440650613
 20
135.2148607283
 11
101.2541573542
 21
140.1249530212
  0
LINE
  5
2D8
100
AcDbEntity
 67
1
  8
0
100
AcDbLine
 62
7
  6
CONTINUOUS
 10
102.7186234483
 20
154.4894191153
 11
102.7186234483
 21
143.6604869271
  0
LINE
  5
2D9
100
AcDbEntity
 67
1
  8
0
100
AcDbLine
 62
7
  6
CONTINUOUS
 10
104.2186234483
 20
125.5894191153
 11
104.2186234483
 21
131.0894191153
  0
LINE
  5
2DA
100
AcDbEntity
 67
1
  8
0
100
AcDbLine
 62
7
  6
CONTINUOUS
 10
115.908603727
 20
154.4894191153
 11
116.0154365535
 21
152.6964829508
  0
LINE
  5
2DB
100
AcDbEntity
 67
1
  8
0
100
AcDbLine
 62
7
  6
CONTINUOUS
 10
121.7186234483
 20
146.0894191153
 11
126.2186234483
 21
146.0894191153
  0
LINE
  5
2DC
100
AcDbEntity
 67
1
  8
0
100
AcDbLine
 62
7
  6
CONTINUOUS
 10
121.7186234483
 20
142.5894191153
 11
121.7186234483
 21
146.0894191153
  0
LINE
  5
2DD
100
AcDbEntity
 67
1
  8
0
100
AcDbLine
 62
7
  6
CONTINUOUS
 10
126.2186234483
 20
146.0894191153
 11
126.2186234483
 21
154.4894191153
  0
LINE
  5
2DE
100
AcDbEntity
 67
1
  8
0
100
AcDbLine
 62
7
  6
CONTINUOUS
 10
126.2186234483
 20
154.4894191153
 11
115.908603727
 21
154.4894191153
  0
LINE
  5
2DF
100
AcDbEntity
 67
1
  8
0
100
AcDbLine
 62
7
  6
CONTINUOUS
 10
109.153988734
 20
154.4894191153
 11
102.7186234483
 21
154.4894191153
  0
LINE
  5
2E0
100
AcDbEntity
 67
1
  8
0
100
AcDbLine
 62
7
  6
CONTINUOUS
 10
113.0616057508
 20
151.2105391177
 11
109.153988734
 21
154.4894191153
  0
ARC
  5
2E1
100
AcDbEntity
 67
1
  8
0
100
AcDbCircle
 62
7
  6
CONTINUOUS
 10
217.8273149963
 20
121.0601253184
 40
49.5222019696
100
AcDbArc
 50
103.3693812222
 51
120.8330860845
  0
ARC
  5
2E2
100
AcDbEntity
 67
1
  8
0
100
AcDbCircle
 62
7
  6
CONTINUOUS
 10
217.8136472756
 20
121.0652711456
 40
49.5086388036
100
AcDbArc
 50
150.3720268306
 51
163.5230176034
  0
ARC
  5
2E3
100
AcDbEntity
 67
1
  8
0
100
AcDbCircle
 62
7
  6
CONTINUOUS
 10
260.1024986562
 20
67.100181421
 40
40.0167697735
100
AcDbArc
 50
91.5094854241
 51
176.2861701193
  0
ARC
  5
2E4
100
AcDbEntity
 67
1
  8
0
100
AcDbCircle
 62
7
  6
CONTINUOUS
 10
217.8195988026
 20
121.0685039982
 40
40.0167697735
100
AcDbArc
 50
91.5094854249
 51
176.2861701201
  0
ARC
  5
2E5
100
AcDbEntity
 67
1
  8
0
100
AcDbCircle
 62
7
  6
CONTINUOUS
 10
205.219589554
 20
174.1073012107
 40
5.0026328399
100
AcDbArc
 50
283.3700383771
 51
315.6024033892
  0
ARC
  5
2E6
100
AcDbEntity
 67
1
  8
0
100
AcDbCircle
 62
7
  6
CONTINUOUS
 10
165.5412880787
 20
136.5264900937
 40
5.0023674461
100
AcDbArc
 50
270.6269217391
 51
343.519941116
  0
ARC
  5
2E7
100
AcDbEntity
 67
1
  8
0
100
AcDbCircle
 62
7
  6
CONTINUOUS
 10
210.0794801272
 20
179.0675414573
 40
5.0006203357
100
AcDbArc
 50
315.5978861043
 51
0.5850199382
  0
ARC
  5
2E8
100
AcDbEntity
 67
1
  8
0
100
AcDbCircle
 62
7
  6
CONTINUOUS
 10
226.4839016583
 20
188.1697972952
 40
1.8003813102
100
AcDbArc
 50
230.6417652733
 51
3.9950252154
  0
ARC
  5
2E9
100
AcDbEntity
 67
1
  8
0
100
AcDbCircle
 62
7
  6
CONTINUOUS
 10
159.6982109768
 20
119.9639317783
 40
1.8000669036
100
AcDbArc
 50
276.9866899108
 51
38.0670164292
  0
ARC
  5
2EA
100
AcDbEntity
 67
1
  8
0
100
AcDbCircle
 62
7
  6
CONTINUOUS
 10
192.9606727763
 20
162.7206231381
 40
1.0047106898
100
AcDbArc
 50
120.8632637209
 51
135.5714436351
  0
ARC
  5
2EB
100
AcDbEntity
 67
1
  8
0
100
AcDbCircle
 62
7
  6
CONTINUOUS
 10
175.6510651491
 20
145.0435722082
 40
1.0045952675
100
AcDbArc
 50
135.6322586463
 51
150.341561917
  0
ARC
  5
2EC
100
AcDbEntity
 67
1
  8
0
100
AcDbCircle
 62
7
  6
CONTINUOUS
 10
104.8363232495
 20
85.5941888127
 40
49.5
100
AcDbArc
 50
102.7497648996
 51
120.2221486159
  0
ARC
  5
2ED
100
AcDbEntity
 67
1
  8
0
100
AcDbCircle
 62
7
  6
CONTINUOUS
 10
104.8363232495
 20
85.5941888127
 40
49.5
100
AcDbArc
 50
149.7778513841
 51
162.9329589424
  0
ARC
  5
2EE
100
AcDbEntity
 67
1
  8
0
100
AcDbCircle
 62
7
  6
CONTINUOUS
 10
104.8363232495
 20
85.5941888127
 40
40.0
100
AcDbArc
 50
90.8848249603
 51
175.7056290495
  0
ARC
  5
2EF
100
AcDbEntity
 67
1
  8
0
100
AcDbCircle
 62
7
  6
CONTINUOUS
 10
52.7363941942
 20
101.5894191153
 40
5.0
100
AcDbArc
 50
270.0
 51
342.9329589424
  0
ARC
  5
2F0
100
AcDbEntity
 67
1
  8
0
100
AcDbCircle
 62
7
  6
CONTINUOUS
 10
92.8085311554
 20
138.7503946342
 40
5.0
100
AcDbArc
 50
282.7497648996
 51
315.0
  0
ARC
  5
2F1
100
AcDbEntity
 67
1
  8
0
100
AcDbCircle
 62
7
  6
CONTINUOUS
 10
97.7186234483
 20
143.6604869271
 40
5.0
100
AcDbArc
 50
315.0
 51
360.0
  0
ARC
  5
2F2
100
AcDbEntity
 67
1
  8
0
100
AcDbCircle
 62
7
  6
CONTINUOUS
 10
114.2186234483
 20
152.5894191153
 40
1.8
100
AcDbArc
 50
230.0
 51
3.4099604107
  0
ARC
  5
2F3
100
AcDbEntity
 67
1
  8
0
100
AcDbCircle
 62
7
  6
CONTINUOUS
 10
46.7186234483
 20
85.0894191153
 40
1.8
100
AcDbArc
 50
276.3793702084
 51
40.0
  0
ARC
  5
2F4
100
AcDbEntity
 67
1
  8
0
100
AcDbCircle
 62
7
  6
CONTINUOUS
 10
62.9284293379
 20
110.0068582262
 40
1.0
100
AcDbArc
 50
135.0
 51
149.7778513841
  0
ARC
  5
2F5
100
AcDbEntity
 67
1
  8
0
100
AcDbCircle
 62
7
  6
CONTINUOUS
 10
80.423653836
 20
127.5020827243
 40
1.0
100
AcDbArc
 50
120.2221486159
 51
135.0
  0
SPLINE
  5
2F6
100
AcDbEntity
 67
1
  8
0
100
AcDbSpline
 62
7
  6
CONTINUOUS
 70
0
 71
3
 72
31
 73
27
 74
0
 42
0.0000001
 43
0.0000001
 44
0.0000000001
 40
0.0
 40
0.0
 40
0.0
 40
0.0
 40
0.0624538442
 40
0.1245798404
 40
0.1559458208
 40
0.187499996
 40
0.2503782917
 40
0.3122161228
 40
0.3428140196
 40
0.3734643272
 40
0.4356069366
 40
0.467255651
 40
0.4992356263
 40
0.5314479067
 40
0.5636776838
 40
0.6269560285
 40
0.6576340961
 40
0.6877426534
 40
0.7027261458
 40
0.7177646281
 40
0.7482052288
 40
0.7793360631
 40
0.8111651733
 40
0.8760697322
 40
0.9402844797
 40
1.0
 40
1.0
 40
1.0
 40
1.0
 10
206.6035063745
 20
54.0495636832
 30
0.0
 10
206.5830862457
 20
54.4633532315
 30
0.0
 10
206.6152397771
 20
55.2937814517
 30
0.0
 10
206.8158956034
 20
56.3118537533
 30
0.0
 10
207.0488473178
 20
57.1083311838
 30
0.0
 10
207.3281564475
 20
57.8951189458
 30
0.0
 10
207.7689396299
 20
58.8372056707
 30
0.0
 10
208.3559491971
 20
59.6923566128
 30
0.0
 10
208.9208247519
 20
60.2838886672
 30
0.0
 10
209.5415072445
 20
60.8190926321
 30
0.0
 10
210.2307483632
 20
61.2789128837
 30
0.0
 10
210.959479756
 20
61.6852209452
 30
0.0
 10
211.5268059798
 20
61.9725449072
 30
0.0
 10
212.1056332776
 20
62.2449021701
 30
0.0
 10
212.875351331
 20
62.5983117113
 30
0.0
 10
213.6276088922
 20
62.9696862123
 30
0.0
 10
214.3173140068
 20
63.421019535
 30
0.0
 10
214.7043315216
 20
63.7444028476
 30
0.0
 10
214.9794061306
 20
64.0338315743
 30
0.0
 10
215.2313720619
 20
64.3463851303
 30
0.0
 10
215.5050194032
 20
64.7767126911
 30
0.0
 10
215.7702958501
 20
65.3380315892
 30
0.0
 10
216.0527326248
 20
66.1390692014
 30
0.0
 10
216.2802664402
 20
67.1861757775
 30
0.0
 10
216.4113818054
 20
68.4333094618
 30
0.0
 10
216.4377760594
 20
69.2555333626
 30
0.0
 10
216.4411667297
 20
69.6516470363
 30
0.0
  0
SPLINE
  5
2F7
100
AcDbEntity
 67
1
  8
0
100
AcDbSpline
 62
7
  6
CONTINUOUS
 70
0
 71
3
 72
32
 73
28
 74
0
 42
0.0000001
 43
0.0000001
 44
0.0000000001
 40
0.0
 40
0.0
 40
0.0
 40
0.0
 40
0.06198888
 40
0.1244248656
 40
0.1876395458
 40
0.2194334517
 40
0.2511182551
 40
0.2824854062
 40
0.3134354463
 40
0.3440182551
 40
0.3745029336
 40
0.4052429737
 40
0.4363887506
 40
0.4679199271
 40
0.4997155149
 40
0.5316173662
 40
0.5634606485
 40
0.6264006235
 40
0.65739771
 40
0.6881313997
 40
0.7187861767
 40
0.749600625
 40
0.7806991947
 40
0.8121133113
 40
0.8756279662
 40
0.9391026311
 40
1.0
 40
1.0
 40
1.0
 40
1.0
 10
258.991733638
 20
112.6008252062
 30
0.0
 10
259.4502537188
 20
112.6054563085
 30
0.0
 10
260.3711430117
 20
112.7024628364
 30
0.0
 10
261.715817721
 20
113.0624230182
 30
0.0
 10
262.7981629433
 20
113.4984423355
 30
0.0
 10
263.6429470742
 20
113.9046034337
 30
0.0
 10
264.2594266397
 20
114.2404475712
 30
0.0
 10
264.846209124
 20
114.6148354565
 30
0.0
 10
265.3921215527
 20
115.0339571223
 30
0.0
 10
265.8853079667
 20
115.5055498652
 30
0.0
 10
266.314222015
 20
116.0340292196
 30
0.0
 10
266.6923585312
 20
116.6039887023
 30
0.0
 10
267.0345990457
 20
117.2046903094
 30
0.0
 10
267.3558064647
 20
117.8254107159
 30
0.0
 10
267.6702151152
 20
118.4557520204
 30
0.0
 10
267.9929229453
 20
119.0846125775
 30
0.0
 10
268.4452689242
 20
119.9052895208
 30
0.0
 10
268.9448120558
 20
120.6930182695
 30
0.0
 10
269.5184645407
 20
121.4162258553
 30
0.0
 10
269.9879229829
 20
121.9142454874
 30
0.0
 10
270.5052035403
 20
122.360843773
 30
0.0
 10
271.070123427
 20
122.7499552613
 30
0.0
 10
271.6741891613
 20
123.0861146682
 30
0.0
 10
272.5254153506
 20
123.4684413498
 30
0.0
 10
273.6461107152
 20
123.8251089178
 30
0.0
 10
275.0131444797
 20
124.0839818722
 30
0.0
 10
275.9237864221
 20
124.2143065993
 30
0.0
 10
276.3685006603
 20
124.2860832321
 30
0.0
  0
SPLINE
  5
2F8
100
AcDbEntity
 67
1
  8
0
100
AcDbSpline
 62
7
  6
CONTINUOUS
 70
0
 71
3
 72
32
 73
28
 74
0
 42
0.0000001
 43
0.0000001
 44
0.0000000001
 40
0.0
 40
0.0
 40
0.0
 40
0.0
 40
0.06198888
 40
0.1244248656
 40
0.1876395458
 40
0.2194334517
 40
0.2511182551
 40
0.2824854062
 40
0.3134354463
 40
0.3440182551
 40
0.3745029336
 40
0.4052429737
 40
0.4363887506
 40
0.4679199271
 40
0.4997155149
 40
0.5316173662
 40
0.5634606485
 40
0.6264006235
 40
0.65739771
 40
0.6881313997
 40
0.7187861767
 40
0.749600625
 40
0.7806991947
 40
0.8121133113
 40
0.8756279662
 40
0.9391026311
 40
1.0
 40
1.0
 40
1.0
 40
1.0
 10
216.7088337839
 20
166.5691477828
 30
0.0
 10
217.1673538647
 20
166.5737788852
 30
0.0
 10
218.0882431576
 20
166.670785413
 30
0.0
 10
219.4329178669
 20
167.0307455948
 30
0.0
 10
220.5152630892
 20
167.4667649121
 30
0.0
 10
221.3600472201
 20
167.8729260103
 30
0.0
 10
221.9765267856
 20
168.2087701478
 30
0.0
 10
222.5633092699
 20
168.5831580331
 30
0.0
 10
223.1092216987
 20
169.0022796989
 30
0.0
 10
223.6024081126
 20
169.4738724418
 30
0.0
 10
224.0313221609
 20
170.0023517962
 30
0.0
 10
224.4094586771
 20
170.5723112789
 30
0.0
 10
224.7516991916
 20
171.1730128861
 30
0.0
 10
225.0729066106
 20
171.7937332925
 30
0.0
 10
225.3873152611
 20
172.424074597
 30
0.0
 10
225.7100230912
 20
173.0529351542
 30
0.0
 10
226.1623690701
 20
173.8736120975
 30
0.0
 10
226.6619122017
 20
174.6613408461
 30
0.0
 10
227.2355646866
 20
175.384548432
 30
0.0
 10
227.7050231288
 20
175.882568064
 30
0.0
 10
228.2223036862
 20
176.3291663496
 30
0.0
 10
228.7872235729
 20
176.7182778379
 30
0.0
 10
229.3912893072
 20
177.0544372448
 30
0.0
 10
230.2425154965
 20
177.4367639265
 30
0.0
 10
231.3632108611
 20
177.7934314944
 30
0.0
 10
232.7302446256
 20
178.0523044489
 30
0.0
 10
233.640886568
 20
178.1826291759
 30
0.0
 10
234.0856008062
 20
178.2544058087
 30
0.0
  0
SPLINE
  5
2F9
100
AcDbEntity
 67
1
  8
0
100
AcDbSpline
 62
7
  6
CONTINUOUS
 70
0
 71
3
 72
31
 73
27
 74
0
 42
0.0000001
 43
0.0000001
 44
0.0000000001
 40
0.0
 40
0.0
 40
0.0
 40
0.0
 40
0.0624538442
 40
0.1245798404
 40
0.1559458208
 40
0.187499996
 40
0.2503782917
 40
0.3122161228
 40
0.3428140196
 40
0.3734643272
 40
0.4356069366
 40
0.467255651
 40
0.4992356263
 40
0.5314479067
 40
0.5636776838
 40
0.6269560285
 40
0.6576340961
 40
0.6877426534
 40
0.7027261458
 40
0.7177646281
 40
0.7482052288
 40
0.7793360631
 40
0.8111651733
 40
0.8760697322
 40
0.9402844797
 40
1.0
 40
1.0
 40
1.0
 40
1.0
 10
164.3206065204
 20
108.0178862598
 30
0.0
 10
164.3001863916
 20
108.4316758081
 30
0.0
 10
164.332339923
 20
109.2621040283
 30
0.0
 10
164.5329957493
 20
110.28017633
 30
0.0
 10
164.7659474637
 20
111.0766537605
 30
0.0
 10
165.0452565934
 20
111.8634415224
 30
0.0
 10
165.4860397758
 20
112.8055282474
 30
0.0
 10
166.073049343
 20
113.6606791894
 30
0.0
 10
166.6379248978
 20
114.2522112438
 30
0.0
 10
167.2586073904
 20
114.7874152087
 30
0.0
 10
167.9478485091
 20
115.2472354603
 30
0.0
 10
168.6765799019
 20
115.6535435218
 30
0.0
 10
169.2439061257
 20
115.9408674838
 30
0.0
 10
169.8227334235
 20
116.2132247467
 30
0.0
 10
170.5924514769
 20
116.5666342879
 30
0.0
 10
171.3447090381
 20
116.9380087889
 30
0.0
 10
172.0344141527
 20
117.3893421117
 30
0.0
 10
172.4214316675
 20
117.7127254242
 30
0.0
 10
172.6965062765
 20
118.0021541509
 30
0.0
 10
172.9484722078
 20
118.3147077069
 30
0.0
 10
173.2221195491
 20
118.7450352677
 30
0.0
 10
173.487395996
 20
119.3063541658
 30
0.0
 10
173.7698327707
 20
120.107391778
 30
0.0
 10
173.9973665861
 20
121.1544983541
 30
0.0
 10
174.1284819513
 20
122.4016320385
 30
0.0
 10
174.1548762053
 20
123.2238559392
 30
0.0
 10
174.1582668756
 20
123.619969613
 30
0.0
  0
SPLINE
  5
2FA
100
AcDbEntity
 67
1
  8
0
100
AcDbSpline
 62
7
  6
CONTINUOUS
 70
0
 71
3
 72
13
 73
9
 74
0
 42
0.0000001
 43
0.0000001
 44
0.0000000001
 40
0.0
 40
0.0
 40
0.0
 40
0.0
 40
0.1437020258
 40
0.3157793828
 40
0.5167881298
 40
0.6993629195
 40
0.8679909495
 40
1.0
 40
1.0
 40
1.0
 40
1.0
 10
51.2186234483
 20
73.0894191153
 30
0.0
 10
51.1809510213
 20
74.054811329
 30
0.0
 10
51.5322676791
 20
76.1026342821
 30
0.0
 10
53.079965334
 20
79.322268076
 30
0.0
 10
56.3661746214
 20
81.1198717202
 30
0.0
 10
59.9503693484
 20
82.5079465307
 30
0.0
 10
61.0817077396
 20
85.718669223
 30
0.0
 10
61.203812365
 20
87.8040317882
 30
0.0
 10
61.2186234483
 20
88.5894191153
 30
0.0
  0
SPLINE
  5
2FB
100
AcDbEntity
 67
1
  8
0
100
AcDbSpline
 62
7
  6
CONTINUOUS
 70
0
 71
3
 72
13
 73
9
 74
0
 42
0.0000001
 43
0.0000001
 44
0.0000000001
 40
0.0
 40
0.0
 40
0.0
 40
0.0
 40
0.1984430127
 40
0.3406253924
 40
0.5146443631
 40
0.7080304506
 40
0.8758748785
 40
1.0
 40
1.0
 40
1.0
 40
1.0
 10
104.2186234483
 20
131.0894191153
 30
0.0
 10
105.6798489818
 20
131.0882980762
 30
0.0
 10
108.1375901678
 20
131.8392522534
 30
0.0
 10
111.5169257488
 20
133.8082437593
 30
0.0
 10
113.1001350076
 20
137.3118245174
 30
0.0
 10
115.2399920714
 20
140.7698258849
 30
0.0
 10
118.6577095114
 20
142.2068029273
 30
0.0
 10
120.8683755795
 20
142.461623108
 30
0.0
 10
121.7186234483
 20
142.5894191153
 30
0.0
  0
ENDSEC
  0
SECTION
  2
OBJECTS
  0
DICTIONARY
  5
C
100
AcDbDictionary
280
0
281
1
  3
ACAD_GROUP
350
D
  3
ACAD_MLINESTYLE
350
17
  3
ACAD_LAYOUT
350
1A
  3
ACAD_PLOTSETTINGS
350
19
  3
ACAD_PLOTSTYLENAME
350
E
  3
ACAD_TABLESTYLE
350
       2FC
  0
DICTIONARY
  5
D
102
{ACAD_REACTORS
330
C
102
}
100
AcDbDictionary
280
0
281
1
  0
ACDBDICTIONARYWDFLT
  5
E
102
{ACAD_REACTORS
330
C
102
}
100
AcDbDictionary
281
1
  3
Normal
350
F
100
AcDbDictionaryWithDefault
340
F
  0
DICTIONARY
  5
17
102
{ACAD_REACTORS
330
C
102
}
100
AcDbDictionary
280
0
281
1
  3
Standard
350
18
  0
DICTIONARY
  5
2FC
330
C
100
AcDbDictionary
281
1
  3
Standard
350
       2FF
  3
Standard1
350
       300
  0
DICTIONARY
  5
19
102
{ACAD_REACTORS
330
C
102
}
100
AcDbDictionary
281
1
  0
DICTIONARY
  5
1A
102
{ACAD_REACTORS
330
C
102
}
100
AcDbDictionary
281
1
  3
Model
350
2FD
  3
C213-PROD-MM_1
350
2FE
  0
ACDBPLACEHOLDER
  5
F
102
{ACAD_REACTORS
330
E
102
}
  0
MLINESTYLE
  5
18
102
{ACAD_REACTORS
330
17
102
}
100
AcDbMlineStyle
  2
STANDARD
 70
0
  3

 62
256
 51
90.0
 52
90.0
 71
2
 49
0.5
 62
256
  6
BYLAYER
 49
-0.5
 62
256
  6
BYLAYER
  0
LAYOUT
  5
2FD
102
{ACAD_REACTORS
330
1A
102
}
100
AcDbPlotSettings
  1

  2
none_device
  4

  6

 40
0.0
 41
0.0
 42
0.0
 43
0.0
 44
297.0
 45
210.0
 46
0.0
 47
0.0
 48
0.0
 49
0.0
140
0.0
141
0.0
142
1.0
143
1.0
 70
1024
 72
1
 73
0
 74
0
  7

 75
0
147
1.0
148
0.0
149
0.0
100
AcDbLayout
  1
Model
 70
0
 71
0
 10
0.0
 20
0.0
 11
297.0
 21
210.0
 12
0.0
 22
0.0
 32
0.0
 14
0.0
 24
0.0
 34
0.0
 15
0.0
 25
0.0
 35
0.0
146
0.0
 13
0.0
 23
0.0
 33
0.0
 16
1.0
 26
0.0
 36
0.0
 17
0.0
 27
1.0
 37
0.0
 76
0
330
209
345
0
346
0
  0
LAYOUT
  5
2FE
102
{ACAD_REACTORS
330
1A
102
}
100
AcDbPlotSettings
  1

  2
none_device
  4
ISO_A4_(297.00_x_210.00_MM)
  6

 40
0.0
 41
0.0
 42
0.0
 43
0.0
 44
297.0
 45
210.0
 46
0.0
 47
0.0
 48
0.0
 49
0.0
140
0.0
141
0.0
142
1.0
143
1.0
 70
0
 72
1
 73
0
 74
0
  7

 75
0
147
1.0
148
0.0
149
0.0
100
AcDbLayout
  1
C213-PROD-MM_1
 70
0
 71
1
 10
0.0
 20
0.0
 11
297.0
 21
210.0
 12
0.0
 22
0.0
 32
0.0
 14
0.0
 24
0.0
 34
0.0
 15
0.0
 25
0.0
 35
0.0
146
0.0
 13
0.0
 23
0.0
 33
0.0
 16
1.0
 26
0.0
 36
0.0
 17
0.0
 27
1.0
 37
0.0
 76
0
330
20A
331
29A
345
0
346
0
  0
TABLESTYLE
  5
2FF
102
{ACAD_REACTORS
330
2FC
330
2A3
102
}
330
2FC
100
AcDbTableStyle
  3
Standard
 70
0
 71
0
 40
0.06
 41
0.06
280
1
281
1
  7
Standard
140
0.18
170
1
 62
0
 63
7
283
0
  7
Standard
140
0.18
170
1
 62
0
 63
7
283
0
  7
Standard
140
0.18
170
1
 62
0
 63
7
283
0
  0
TABLESTYLE
  5
300
102
{ACAD_REACTORS
330
2FC
102
}
330
2FC
100
AcDbTableStyle
  3
Standard1
 70
1
 71
0
 40
0.06
 41
0.06
280
1
281
1
  7
Standard
140
0.18
170
1
 62
0
 63
7
283
0
  7
Standard
140
0.18
170
1
 62
0
 63
7
283
0
  7
Standard
140
0.18
170
1
 62
0
 63
7
283
0
  0
ENDSEC
  0
EOF
